Несокрушимый (Константин Максимов) [2018, Военный, история, драма, BDRip] [Лицензия]

Reply to topic
DL-List and Torrent activity
Size:  1.44 GB   |    Registered:  17 days   |    Completed:  1 time
Seeders:  1  [  0 KB/s  ]   Leechers:  1  [  0 KB/s  ]   Show peers in full details
 
 
 
 
Author Message

_Deimos_ ®

VIP пользователь

Gender: Male

Longevity: 1 year 2 months

Posts: 292

Карма: 33000 [+]

Location: Топторрент

Наличие запрета:

[Profile] [PM]

Post 08-Apr-2019 15:03

[Quote]

Несокрушимый- --Год выпуска: 2018
Страна: Россия
Жанр: Военный, история, драма
Продолжительность: 01:29:36
Перевод: Не требуется [Лицензия] --Режиссёр: Константин Максимов--В ролях: Андрей Чернышов, Владимир Епифанцев, Олег Фомин, Ольга Погодина, Сергей Горобченко, Николай Добрынин, Василий Седых, Владимир Кочетков, Дмитрий Золотухин, Олег Чудницов-- : В основе фильма реальная история уникального подвига экипажа танка «КВ-1». Приняв неравный бой, экипаж Семена Коновалова уничтожил 16 танков, 2 бронемашины и 8 автомашин с живой силой противника в районе хутора Нижнемитякин Тарасовского района Ростовской области. Это история не плакатных героев, а разбитных, веселых, очень разных парней, которые просто хотели жить, но в решающую минуту сумели принять единственно верное решение и совершить подвиг достойный легенды.-- Качество: BDRip
Формат видео: AVI
Видео: Xvid, 720x304, 24 fps, 1845 kb/s
Аудио: AC3, 48.0 kHz, 6 channels, 448 kb/s--

Рейтинг фильма --
General
Complete name : G:\Kino\Nesokrushimyy.2018.BDRip.avi
Format : AVI
Format/Info : Audio Video Interleave
File size : 1.44 GiB
Duration : 1 h 29 min
Overall bit rate : 2 302 kb/s
Movie name : Nesokrushimyj.2018.RUS.BDRip.1.46Gb_ExKinoRay_by_Twi7ter
Director : Twi7ter
Genre : War/Drama/History
Original source form/Name : Movie
Video
ID : 0
Format : MPEG-4 Visual
Format profile : Advanced Simple@L5
Format settings, BVOP : 2
Format settings, QPel : No
Format settings, GMC : No warppoints
Format settings, Matrix : Custom
Codec ID : XVID
Codec ID/Hint : XviD
Duration : 1 h 29 min
Bit rate : 1 845 kb/s
Width : 720 pixels
Height : 304 pixels
Display aspect ratio : 2.35:1
Frame rate : 24.000 FPS
Color space : YUV
Chroma subsampling : 4:2:0
Bit depth : 8 bits
Scan type : Progressive
Compression mode : Lossy
Bits/(Pixel*Frame) : 0.351
Stream size : 1.15 GiB (80%)
Writing library : XviD 73
Audio
ID : 1
Format : AC-3
Format/Info : Audio Coding 3
Format settings, Endianness : Big
Codec ID : 2000
Duration : 1 h 29 min
Bit rate mode : Constant
Bit rate : 448 kb/s
Channel(s) : 6 channels
Channel positions : Front: L C R, Side: L R, LFE
Sampling rate : 48.0 kHz
Frame rate : 31.250 FPS (1536 SPF)
Bit depth : 16 bits
Compression mode : Lossy
Stream size : 287 MiB (19%)
Alignment : Aligned on interleaves
Interleave, duration : 42 ms (1.00 video frame)
Interleave, preload duration : 512 ms
Service kind : Complete Main

Release was prepared by RG Cinema

If your ratio falls below 0.3, you will not be able to download Torrents! More about the rating.

[toptorrent.pw].t5754.torrent
Torrent: Registered [ 2019-04-08 15:03 ] · 0A5B1820B6D18BE1DE694239DDE435A77796B426

Download .torrent

Download

15 KB

Status: checked
Completed: 1 times
Size: 1.44 GB
Rate: 
(Vote: 1)
Has thanked: 1  Thanks   (List)
terms.php
Display posts:    
Reply to topic

Current time is: 26-Apr 01:51

All times are UTC + 5



You cannot post new topics in this forum
You cannot reply to topics in this forum
You cannot edit your posts in this forum
You cannot delete your posts in this forum
You cannot vote in polls in this forum
You cannot attach files in this forum
You can download files in this forum