Поселенцы / Сезон 1 / Серии 1-16 из 16 (Артём Мазунов) [2019 г., Драма, SATRip]

Reply to topic
DL-List and Torrent activity
Size:  10.53 GB   |    Registered:  13 days   |    Completed:  0 times
Seeders:  12  [  0 KB/s  ]   Leechers:  2  [  0 KB/s  ]   Show peers in full details
   
 
Author Message

.:Mercury:. ®

Gender: Male

Longevity: 1 year 2 months

Posts: 3007

Карма: 31947 [+]

Наличие запрета:

[Profile] [PM]

Post 08-Apr-2019 17:40

[Quote]

Поселенцы- -Год выпуска: 2019
Страна: Россия
Жанр: Драма
Продолжительность: ~00:51:00--Режиссер: Артём Мазунов--В ролях: Алексей Морозов, Сергей Комаров, Лукерья Ильяшенко, Владимир Юматов, Александр Тютин, Екатерина Соломатина, Никита Абдулов, Александр Хованский, Александра Прокофьева, Константин Балакирев--Описание: Иван Корнилов – бывший спецназовец, руководитель силового подразделения службы исполнения наказаний. После конфликта с руководством и болезненного разрыва отношений с любимой женщиной, принимает решение изменить свою жизнь и уехать из Москвы. В этот момент Корнилов узнаёт, что в колонии-поселении есть вакантное место, и устраивается туда оперативником. Начальник колонии Григорьев Василий Иванович (Александр Тютин) искренне рад появлению талантливого, энергичного оперативника. Здесь, в колонии отбывают срок наказания лица из совершенно разных социальных слоёв, уровня и уклада жизни, а так же среди осужденных есть те, кого незаконно обвинили. За любовь и внимание красавца опера начинается борьба одиноких женщин – сотрудниц колонии-поселения, но Корнилова не отпускают воспоминания о Елене, которая ушла от него. Сердце Ивана глухо к чувствам до тех пор, пока при расследовании одного из преступлений, он неожиданно не сближается с заключенной Любовью (Лукерья Ильяшенко). Бывшая актриса по роковой случайности стала свидетельницей, произошедшего на территории колонии.--Качество: SATRip
Формат: AVI
Видео кодек: XviD
Аудио кодек: MP3
Видео: XviD, 720x288 (4:2:0), 25.000 fps, 1800 Кбит/с
Аудио: МР3, 48.0 kHz, 128 Кбит/с, 2 ch
General
Complete name : /media/mercury/D/Poselency.SATRip/Poselency.01.SATRip.avi
Format : AVI
Format/Info : Audio Video Interleave
File size : 660 MiB
Duration : 47 min 38 s
Overall bit rate : 1 938 kb/s
Writing application : VirtualDubMod 1.5.10.3 | www.virtualdub-fr.org || (build 2550/release)
Writing library : VirtualDubMod build 2550/release
Video
ID : 0
Format : MPEG-4 Visual
Format profile : Advanced Simple@L5
Format settings : BVOP2
Format settings, BVOP : 2
Format settings, QPel : No
Format settings, GMC : No warppoints
Format settings, Matrix : Default (H.263)
Codec ID : XVID
Codec ID/Hint : XviD
Duration : 47 min 38 s
Bit rate : 1 800 kb/s
Width : 720 pixels
Height : 288 pixels
Display aspect ratio : 2.500
Frame rate : 25.000 FPS
Color space : YUV
Chroma subsampling : 4:2:0
Bit depth : 8 bits
Scan type : Progressive
Compression mode : Lossy
Bits/(Pixel*Frame) : 0.347
Stream size : 613 MiB (93%)
Writing library : XviD 1.2.1 (UTC 2008-12-04)
Audio
ID : 1
Format : MPEG Audio
Format version : Version 1
Format profile : Layer 3
Format settings : Joint stereo / MS Stereo
Codec ID : 55
Codec ID/Hint : MP3
Duration : 47 min 38 s
Bit rate mode : Constant
Bit rate : 128 kb/s
Channel(s) : 2 channels
Sampling rate : 48.0 kHz
Frame rate : 41.667 FPS (1152 SPF)
Compression mode : Lossy
Stream size : 43.6 MiB (7%)
Alignment : Aligned on interleaves
Interleave, duration : 40 ms (1.00 video frame)
Interleave, preload duration : 504 ms
Writing library : LAME3.99r
Encoding settings : -m j -V 4 -q 9 -lowpass 17 -b 128

Release was prepared by RG Serials

If your ratio falls below 0.3, you will not be able to download Torrents! More about the rating.

[toptorrent.pw].t5755.torrent
Torrent: Registered [ 2019-04-12 20:34 ] · A4A0F307A686E346125A9D0A9ACFEAC5F53EEECA

Download .torrent

Download

107 KB

Status: checked
Completed: 0 times
Size: 10.53 GB
Rate: 
(Vote: 2)
Has thanked: 3  Thanks   (List)
terms.php


Last edited by .:Mercury:. on 2019-04-12 20:34; edited 6 times in total

.:Mercury:. ®

Gender: Male

Longevity: 1 year 2 months

Posts: 3007

Карма: 31947 [+]

Наличие запрета:

[Profile] [PM]

Post 08-Apr-2019 18:15 (after 34 minutes)

[Quote]

+2-я серия

.:Mercury:. ®

Gender: Male

Longevity: 1 year 2 months

Posts: 3007

Карма: 31947 [+]

Наличие запрета:

[Profile] [PM]

Post 08-Apr-2019 19:04 (after 48 minutes)

[Quote]

+3-я серия

.:Mercury:. ®

Gender: Male

Longevity: 1 year 2 months

Posts: 3007

Карма: 31947 [+]

Наличие запрета:

[Profile] [PM]

Post 09-Apr-2019 19:45 (after 1 day)

[Quote]

+4-я, 5-я и 6-я серия

.:Mercury:. ®

Gender: Male

Longevity: 1 year 2 months

Posts: 3007

Карма: 31947 [+]

Наличие запрета:

[Profile] [PM]

Post 10-Apr-2019 19:50 (after 1 day)

[Quote]

+7-я, 8-я и 9-я серия

.:Mercury:. ®

Gender: Male

Longevity: 1 year 2 months

Posts: 3007

Карма: 31947 [+]

Наличие запрета:

[Profile] [PM]

Post 11-Apr-2019 20:00 (after 1 day)

[Quote]

+10-я, 11-я и 12-я серия

.:Mercury:. ®

Gender: Male

Longevity: 1 year 2 months

Posts: 3007

Карма: 31947 [+]

Наличие запрета:

[Profile] [PM]

Post 12-Apr-2019 19:34 (after 23 hours)

[Quote]

+13-я, 14-я и 15-я серия

.:Mercury:. ®

Gender: Male

Longevity: 1 year 2 months

Posts: 3007

Карма: 31947 [+]

Наличие запрета:

[Profile] [PM]

Post 12-Apr-2019 20:39 (after 1 hour 4 minutes)

[Quote]

+Заключительная серия
Display posts:    
Reply to topic

Current time is: 26-Apr 01:09

All times are UTC + 5



You cannot post new topics in this forum
You cannot reply to topics in this forum
You cannot edit your posts in this forum
You cannot delete your posts in this forum
You cannot vote in polls in this forum
You cannot attach files in this forum
You can download files in this forum