Скайлайн: Дилогия / Skyline: Dilogy (Колин Штраус, Грег Штраус, Лайам О’Доннелл) [2010, 2017., Ужасы, фантастика, боевик, триллер, BDRip-AVC] DUB [лицензия]

Reply to topic
DL-List and Torrent activity
Size:  4.27 GB   |    Registered:  9 days   |    Completed:  0 times
Seeders:  1  [  0 KB/s  ]   Show peers in full details
 
 
 
 
Author Message

_Deimos_ ®

VIP пользователь

Gender: Male

Longevity: 1 year 2 months

Posts: 282

Карма: 33000 [+]

Location: Топторрент

Наличие запрета:

[Profile] [PM]

Post 10-Apr-2019 16:08

[Quote]

Скайлайн: Дилогия / Skyline: Dilogy-

-- Год выпуска: 2010
Страна: США
Жанр: Фантастика, боевик, триллер
Продолжительность: 01:32:28
Перевод: Профессиональный дублирование [лицензия]--Режиссер: Колин Штраус, Грег Штраус--В ролях: Эрик Бальфур, Скотти Томпсон, Дэвид Зайас, Бриттани Дэниэл, Дональд Фэйсон, Кристал Рид, Нил Хопкинс, Робин Гэммел, Таня Ньюболд, Дж. Пол Бомер-- После вечеринки компания друзей просыпается от того, что в окно ударяет яркий свет. Они видят, как людей на улице затягивает в столп света, и они поднимаются куда-то вверх. Вскоре после этого на планете начинается зачистка оставшихся людей. Выжившим предстоит бороться за жизнь с инопланетными тварями.-- Качество: BDRip-AVC
Формат видео: MKV
Видео кодек: H.264, 1036x436, 23.976 fps, 2110 kb/s
Аудио кодек: AC3, 48.0 kHz, 6 channels, 448 kb/s (Русский)
Аудио кодек 2: AC3, 48.0 kHz, 6 channels, 448 kb/s (Английский)
Субтитры: Русские--

Рейтинг фильма --
General
Unique ID : 193645179435466049659152525570282494387 (0x91AEB478A889C3C9A3D90AA440E619B3)
Complete name : F:\Kino\Фантастические и комикси\Скайлайн Дилогия\Skajlajn.2010.DUAL.BDRip.x264.-HELLYWOOD.mkv
Format : Matroska
Format version : Version 4 / Version 2
File size : 2.10 GiB
Duration : 1 h 37 min
Overall bit rate : 3 067 kb/s
Movie name : HELLYWOOD
Encoded date : UTC 2013-08-03 03:26:52
Writing application : mkvmerge v5.9.0 ('On The Loose') built on Dec 15 2012 16:39:58
Writing library : libebml v1.3.0 + libmatroska v1.4.0
Video
ID : 1
Format : AVC
Format/Info : Advanced Video Codec
Format profile : High@L4.1
Format settings, CABAC : Yes
Format settings, RefFrames : 9 frames
Codec ID : V_MPEG4/ISO/AVC
Duration : 1 h 37 min
Bit rate : 2 110 kb/s
Nominal bit rate : 2 294 kb/s
Width : 1 036 pixels
Height : 436 pixels
Display aspect ratio : 2.40:1
Frame rate mode : Constant
Frame rate : 23.976 (24000/1001) FPS
Color space : YUV
Chroma subsampling : 4:2:0
Bit depth : 8 bits
Scan type : Progressive
Bits/(Pixel*Frame) : 0.195
Stream size : 1.44 GiB (69%)
Title : Skyline
Writing library : x264 core 128 r2216M 198a7ea
Encoding settings : cabac=1 / ref=10 / deblock=1:-2:-2 / analyse=0x3:0x133 / me=umh / subme=11 / psy=1 / psy_rd=1.05:0.00 / mixed_ref=1 / me_range=32 / chroma_me=1 / trellis=2 / 8x8dct=1 / cqm=0 / deadzone=21,11 / fast_pskip=0 / chroma_qp_offset=-2 / threads=6 / lookahead_threads=1 / sliced_threads=0 / nr=0 / decimate=0 / interlaced=0 / bluray_compat=0 / constrained_intra=0 / bframes=11 / b_pyramid=1 / b_adapt=2 / b_bias=0 / direct=3 / weightb=1 / open_gop=0 / weightp=2 / keyint=250 / keyint_min=23 / scenecut=40 / intra_refresh=0 / rc_lookahead=150 / rc=2pass / mbtree=1 / bitrate=2294 / ratetol=1.0 / qcomp=0.70 / qpmin=0 / qpmax=69 / qpstep=4 / cplxblur=20.0 / qblur=0.5 / vbv_maxrate=20000 / vbv_bufsize=20000 / nal_hrd=none / ip_ratio=1.35 / aq=1:0.85
Language : English
Default : Yes
Forced : No
Audio #1
ID : 2
Format : AC-3
Format/Info : Audio Coding 3
Format settings, Endianness : Big
Codec ID : A_AC3
Duration : 1 h 37 min
Bit rate mode : Constant
Bit rate : 448 kb/s
Channel(s) : 6 channels
Channel positions : Front: L C R, Side: L R, LFE
Sampling rate : 48.0 kHz
Frame rate : 31.250 FPS (1536 SPF)
Bit depth : 16 bits
Compression mode : Lossy
Stream size : 313 MiB (15%)
Title : DUB | DD 5.1 @ 448 kbps - BD RUS
Language : Russian
Service kind : Complete Main
Default : Yes
Forced : Yes
Audio #2
ID : 3
Format : AC-3
Format/Info : Audio Coding 3
Format settings, Endianness : Big
Codec ID : A_AC3
Duration : 1 h 37 min
Bit rate mode : Constant
Bit rate : 448 kb/s
Channel(s) : 6 channels
Channel positions : Front: L C R, Side: L R, LFE
Sampling rate : 48.0 kHz
Frame rate : 31.250 FPS (1536 SPF)
Bit depth : 16 bits
Compression mode : Lossy
Stream size : 313 MiB (15%)
Title : Original | DD 5.1 @ 448 kbps
Language : English
Service kind : Complete Main
Default : No
Forced : No
Text
ID : 4
Format : UTF-8
Codec ID : S_TEXT/UTF8
Codec ID/Info : UTF-8 Plain Text
Language : Russian
Default : No
Forced : No

-- Год выпуска: 2017
Страна: Великобритания, Китай, Канада, Индонезия, Сингапур
Жанр: Ужасы, фантастика, боевик, триллер
Продолжительность: 01:46:39
Перевод: Профессиональный дублирование [лицензия]--Режиссер: Лайам О’Доннелл--В ролях: Фрэнк Грилло, Бояна Новакович, Джонни Уэстон, Каллэн Мулвей, Антонио Фаргас, Памелин Чи, Яян Рухьян, Джейкоб Варгас, Ико Уайс, Линдси Морган-- В мире — хаос и паника. Небо закрыли нависающие над городами космические корабли, которые через огромные столпы света затягивают к себе на борт тысячи людей прямо с улиц. Чтобы найти похищенного сына, бесстрашному детективу придется проникнуть на корабль агрессивных пришельцев, отбить атаку этих разъяренных тварей и… попытаться вернуть планету землянам.-- Качество: BDRip-AVC
Формат видео: MKV
Видео кодек: H.264, 1032x432, 23.976 fps, 2030 kb/s
Аудио кодек: AC3, 48.0 kHz, 6 channels, 448 kb/s (Русский)
Аудио кодек 2: AC3, 48.0 kHz, 6 channels, 448 kb/s (Английский)
Субтитры: Английские--

Рейтинг фильма --
General
Unique ID : 228810289341803004642498883462730821833 (0xAC23423F95BC1BDE932935564AAB30C9)
Complete name : F:\Kino\Фантастические и комикси\Скайлайн Дилогия\Skaylayn.2.2017.DUAL.BDRip.x264.-HELLYWOOD.mkv
Format : Matroska
Format version : Version 4 / Version 2
File size : 2.18 GiB
Duration : 1 h 46 min
Overall bit rate : 2 925 kb/s
Movie name : Beyond Skyline (2017)
Encoded date : UTC 2018-02-02 11:28:04
Writing application : mkvmerge v5.9.0 ('On The Loose') built on Dec 15 2012 16:39:58
Writing library : libebml v1.3.0 + libmatroska v1.4.0
Video
ID : 1
Format : AVC
Format/Info : Advanced Video Codec
Format profile : High@L4.1
Format settings, CABAC : Yes
Format settings, RefFrames : 10 frames
Codec ID : V_MPEG4/ISO/AVC
Duration : 1 h 46 min
Bit rate : 2 030 kb/s
Width : 1 032 pixels
Height : 432 pixels
Display aspect ratio : 2.40:1
Frame rate mode : Constant
Frame rate : 23.976 (24000/1001) FPS
Color space : YUV
Chroma subsampling : 4:2:0
Bit depth : 8 bits
Scan type : Progressive
Bits/(Pixel*Frame) : 0.190
Stream size : 1.47 GiB (67%)
Title : potroks
Writing library : x264 core 152 r2851M ba24899
Encoding settings : cabac=1 / ref=10 / deblock=1:-1:-1 / analyse=0x3:0x133 / me=umh / subme=11 / psy=1 / psy_rd=1.00:0.05 / mixed_ref=1 / me_range=48 / chroma_me=1 / trellis=2 / 8x8dct=1 / cqm=0 / deadzone=21,11 / fast_pskip=0 / chroma_qp_offset=-3 / threads=9 / lookahead_threads=2 / sliced_threads=0 / nr=0 / decimate=0 / interlaced=0 / bluray_compat=0 / constrained_intra=0 / bframes=12 / b_pyramid=2 / b_adapt=2 / b_bias=0 / direct=3 / weightb=1 / open_gop=0 / weightp=2 / keyint=240 / keyint_min=23 / scenecut=40 / intra_refresh=0 / rc_lookahead=100 / rc=2pass / mbtree=0 / bitrate=2030 / ratetol=1.0 / qcomp=0.70 / qpmin=0 / qpmax=69 / qpstep=4 / cplxblur=20.0 / qblur=0.5 / vbv_maxrate=52000 / vbv_bufsize=50000 / nal_hrd=none / filler=0 / ip_ratio=1.40 / pb_ratio=1.30 / aq=2:0.80
Language : English
Default : Yes
Forced : No
Audio #1
ID : 2
Format : AC-3
Format/Info : Audio Coding 3
Format settings, Endianness : Big
Codec ID : A_AC3
Duration : 1 h 46 min
Bit rate mode : Constant
Bit rate : 448 kb/s
Channel(s) : 6 channels
Channel positions : Front: L C R, Side: L R, LFE
Sampling rate : 48.0 kHz
Frame rate : 31.250 FPS (1536 SPF)
Bit depth : 16 bits
Compression mode : Lossy
Stream size : 342 MiB (15%)
Title : Dub | DD 5.1 @ 448 kbps - Blu-ray RUS
Language : Russian
Service kind : Complete Main
Default : Yes
Forced : No
Audio #2
ID : 3
Format : AC-3
Format/Info : Audio Coding 3
Format settings, Endianness : Big
Codec ID : A_AC3
Duration : 1 h 46 min
Bit rate mode : Constant
Bit rate : 448 kb/s
Channel(s) : 6 channels
Channel positions : Front: L C R, Side: L R, LFE
Sampling rate : 48.0 kHz
Frame rate : 31.250 FPS (1536 SPF)
Bit depth : 16 bits
Compression mode : Lossy
Stream size : 342 MiB (15%)
Title : Original | DD 5.1 @ 448 kbps
Language : English
Service kind : Complete Main
Default : No
Forced : No
Text #1
ID : 4
Format : UTF-8
Codec ID : S_TEXT/UTF8
Codec ID/Info : UTF-8 Plain Text
Title : Full
Language : English
Default : No
Forced : No
Text #2
ID : 5
Format : UTF-8
Codec ID : S_TEXT/UTF8
Codec ID/Info : UTF-8 Plain Text
Title : SDH
Language : English
Default : No
Forced : No
Menu
00:00:00.000 : :00:00:00.000
00:07:42.587 : :00:07:42.587
00:16:46.172 : :00:16:46.172
00:24:08.947 : :00:24:08.947
00:33:19.998 : :00:33:19.998
00:42:11.112 : :00:42:11.112
00:51:07.439 : :00:51:07.439
00:59:55.717 : :00:59:55.717
01:08:09.627 : :01:08:09.627
01:18:35.961 : :01:18:35.961
01:26:59.089 : :01:26:59.089
01:35:50.453 : :01:35:50.453

Release was prepared by RG Cinema

If your ratio falls below 0.3, you will not be able to download Torrents! More about the rating.

[toptorrent.pw].t5758.torrent
Torrent: Registered [ 2019-04-10 16:08 ] · 9AF1A23F9A4FFAFCC406ED9F022F3F18DCA2A780

Download .torrent

Download

11 KB

Status: checked
Completed: 0 times
Size: 4.27 GB
Rate: 
(Vote: 1)
Has thanked: 1  Thanks   (List)
terms.php
Display posts:    
Reply to topic

Current time is: 20-Apr 05:14

All times are UTC + 5



You cannot post new topics in this forum
You cannot reply to topics in this forum
You cannot edit your posts in this forum
You cannot delete your posts in this forum
You cannot vote in polls in this forum
You cannot attach files in this forum
You can download files in this forum