Люди в черном: Трилогия / Men in Black: Trilogy (Барри Зонненфельд) [1997, 2002, 2012 г., Фантастика, боевик, комедия, BDRip-AVC] DUB

Reply to topic
DL-List and Torrent activity
Size:  3.27 GB   |    Registered:  3 months 8 days   |    Completed:  0 times
Seeders:  1  [  0 KB/s  ]   Show peers in full details
 
 
 
 
Author Message

_Deimos_ ®

VIP пользователь

Gender: Male

Longevity: 1 year 5 months

Posts: 372

Карма: 33000 [+]

Наличие запрета:

[Profile] [PM]

Post 11-Apr-2019 21:12

[Quote]

Люди в черном / Men in Black- -- Год выпуска: 1997
Страна: США
Жанр: фантастика, комедия
Продолжительность: 01:30:54
Перевод: Профессиональный дублирование--Режиссер: Барри Зонненфельд--В ролях: Томми Ли Джонс, Уилл Смит, Винсент Д’Онофрио, Линда Фиорентино, Рип Торн, Тони Шэлуб, Шиван Фэллон, Майк Нассбаум, Джон Грайз, Фредрик Лене, Ричард Хэмилтон, Кент Фалкон, Джон Александр, Кейт Кэмпбелл, Кен Торли, Патрик Брин, Бекки Энн Бэйкер, Шон Уэйлен, Хэрш Нэйэр-- Они — самый большой секрет Земли. Они работают на неофициальное правительственное агентство, регулирующее деятельность инопланетян на Земле.
Они — это лучшая, последняя и единственная линия защиты Земли от отбросов вселенной. Их работа секретна, их оружие совершенно, им нет равных, они не оставляют следов. Они — это Люди в чёрном.-- Качество: BDRip-AVC
Формат видео: MKV
Видео кодек: H.264, 720x384, 23.976 fps, 1325 kb/s
Аудио кодек: AC3, 48.0 kHz, 6 channels, 384 kb/s--

Рейтинг фильма --
General
Unique ID : 174851734534889517122001832099174057526 (0x838B38195AC14B58B6E48D82BC3E8636)
Complete name : F:\Kino\Фантастические и комикси\Люди в черном Трилогия\1997. Люди в черном..mkv
Format : Matroska
Format version : Version 2
File size : 1.09 GiB
Duration : 1 h 30 min
Overall bit rate : 1 711 kb/s
Encoded date : UTC 2012-09-19 09:24:52
Writing application : mkvmerge v5.8.0 ('No Sleep / Pillow') built on Sep 2 2012 15:37:04
Writing library : libebml v1.2.3 + libmatroska v1.3.0
Video
ID : 1
Format : AVC
Format/Info : Advanced Video Codec
Format profile : High 10@L5.1
Format settings, CABAC : Yes
Format settings, RefFrames : 16 frames
Codec ID : V_MPEG4/ISO/AVC
Duration : 1 h 30 min
Bit rate : 1 325 kb/s
Width : 720 pixels
Height : 384 pixels
Display aspect ratio : 1.85:1
Frame rate mode : Constant
Frame rate : 23.976 (24000/1001) FPS
Color space : YUV
Chroma subsampling : 4:2:0
Bit depth : 10 bits
Scan type : Progressive
Bits/(Pixel*Frame) : 0.200
Stream size : 840 MiB (76%)
Writing library : x264 core 125 r2200+677M 3a754e7
Encoding settings : cabac=1 / ref=16 / deblock=1:-2:-2 / analyse=0x3:0x133 / me=umh / subme=11 / psy=1 / fade_compensate=0.00 / psy_rd=1.00:0.15 / mixed_ref=1 / me_range=32 / chroma_me=1 / trellis=2 / 8x8dct=1 / cqm=0 / deadzone=21,11 / fast_pskip=1 / chroma_qp_offset=-3 / threads=4 / lookahead_threads=1 / sliced_threads=0 / nr=0 / decimate=1 / interlaced=0 / bluray_compat=0 / constrained_intra=0 / fgo=0 / bframes=12 / b_pyramid=2 / b_adapt=2 / b_bias=0 / direct=3 / weightb=1 / open_gop=0 / weightp=1 / keyint=230 / keyint_min=23 / scenecut=40 / intra_refresh=0 / rc_lookahead=60 / rc=2pass / mbtree=1 / bitrate=1325 / ratetol=1.0 / qcomp=0.60 / qpmin=0 / qpmax=81 / qpstep=4 / cplxblur=20.0 / qblur=0.5 / vbv_maxrate=50000 / vbv_bufsize=50000 / nal_hrd=none / ip_ratio=1.40 / aq=1:1.00
Language : English
Default : Yes
Forced : No
Color range : Limited
Color primaries : BT.709
Transfer characteristics : BT.709
Matrix coefficients : BT.709
Audio
ID : 2
Format : AC-3
Format/Info : Audio Coding 3
Format settings, Endianness : Big
Codec ID : A_AC3
Duration : 1 h 30 min
Bit rate mode : Constant
Bit rate : 384 kb/s
Channel(s) : 6 channels
Channel positions : Front: L C R, Side: L R, LFE
Sampling rate : 48.0 kHz
Frame rate : 31.250 FPS (1536 SPF)
Bit depth : 16 bits
Compression mode : Lossy
Stream size : 250 MiB (22%)
Language : Russian
Service kind : Complete Main
Default : Yes
Forced : No
Люди в черном 2 / Men in Black II- -- Год выпуска: 2002
Страна: США
Жанр: Фантастика, боевик, комедия
Продолжительность: 01:20:42
Перевод: Профессиональный дублирование--Режиссер: Барри Зонненфельд--В ролях: Томми Ли Джонс, Уилл Смит, Рип Торн, Лара Флинн Бойл, Джонни Ноксвил, Розарио Доусон, Тони Шэлоуб, Патрик Варбертон, Джек Келер, Дэвид Кросс-- Много лет назад лучший агент организации «Люди в черном» Кей получил задание особой важности. Ему поручили надёжно спрятать таинственный космический артефакт «Светоч». Проходит 25 лет и на Землю прилетает уничтожительница миров Серлина. Приняв образ сексапильной фотомодели, она начала поиски «Светоча». Чтобы не дать ни единого шанса Серлине артефакт нужно отыскать раньше неё, но есть одна проблема — после того как агенты Кей и Джей уничтожили четыре года назад хищного инопланетного таракана, Кею стёрли память. Теперь он мирно трудится в Почтовом департаменте. У него нет даже малейшего воспоминания о своём прошлом, и Джею, для спасения мира, во чтобы то ни стало нужно найти способ восстановить его память.-- Качество: BDRip-AVC
Формат видео: MKV
Видео кодек: H.264, 720x384, 23.976 fps, 1368 kb/s
Аудио кодек: AC3, 48.0 kHz, 6 channels, 384 kb/s--

Рейтинг фильма --
General
Unique ID : 194924586294318774092972524981698645003 (0x92A51C1980E41B3DBF35B8AFA3074C0B)
Complete name : F:\Kino\Фантастические и комикси\Люди в черном Трилогия\2002. Люди в черном 2..mkv
Format : Matroska
Format version : Version 2
File size : 1 012 MiB
Duration : 1 h 20 min
Overall bit rate : 1 754 kb/s
Encoded date : UTC 2012-09-19 15:39:27
Writing application : mkvmerge v5.8.0 ('No Sleep / Pillow') built on Sep 2 2012 15:37:04
Writing library : libebml v1.2.3 + libmatroska v1.3.0
Video
ID : 1
Format : AVC
Format/Info : Advanced Video Codec
Format profile : High 10@L5.1
Format settings, CABAC : Yes
Format settings, RefFrames : 16 frames
Codec ID : V_MPEG4/ISO/AVC
Duration : 1 h 20 min
Bit rate : 1 368 kb/s
Width : 720 pixels
Height : 384 pixels
Display aspect ratio : 1.85:1
Frame rate mode : Constant
Frame rate : 23.976 (24000/1001) FPS
Color space : YUV
Chroma subsampling : 4:2:0
Bit depth : 10 bits
Scan type : Progressive
Bits/(Pixel*Frame) : 0.206
Stream size : 770 MiB (76%)
Writing library : x264 core 125 r2200+677M 3a754e7
Encoding settings : cabac=1 / ref=16 / deblock=1:-2:-2 / analyse=0x3:0x133 / me=umh / subme=11 / psy=1 / fade_compensate=0.00 / psy_rd=1.00:0.15 / mixed_ref=1 / me_range=32 / chroma_me=1 / trellis=2 / 8x8dct=1 / cqm=0 / deadzone=21,11 / fast_pskip=1 / chroma_qp_offset=-3 / threads=4 / lookahead_threads=1 / sliced_threads=0 / nr=0 / decimate=1 / interlaced=0 / bluray_compat=0 / constrained_intra=0 / fgo=0 / bframes=12 / b_pyramid=2 / b_adapt=2 / b_bias=0 / direct=3 / weightb=1 / open_gop=0 / weightp=1 / keyint=230 / keyint_min=23 / scenecut=40 / intra_refresh=0 / rc_lookahead=60 / rc=2pass / mbtree=1 / bitrate=1368 / ratetol=1.0 / qcomp=0.60 / qpmin=0 / qpmax=81 / qpstep=4 / cplxblur=20.0 / qblur=0.5 / vbv_maxrate=50000 / vbv_bufsize=50000 / nal_hrd=none / ip_ratio=1.40 / aq=1:1.00
Language : English
Default : Yes
Forced : No
Color range : Limited
Color primaries : BT.709
Transfer characteristics : BT.709
Matrix coefficients : BT.709
Audio
ID : 2
Format : AC-3
Format/Info : Audio Coding 3
Format settings, Endianness : Big
Codec ID : A_AC3
Duration : 1 h 20 min
Bit rate mode : Constant
Bit rate : 384 kb/s
Channel(s) : 6 channels
Channel positions : Front: L C R, Side: L R, LFE
Sampling rate : 48.0 kHz
Frame rate : 31.250 FPS (1536 SPF)
Bit depth : 16 bits
Compression mode : Lossy
Stream size : 222 MiB (22%)
Language : Russian
Service kind : Complete Main
Default : Yes
Forced : No
Люди в черном 3 / Men in Black 3- -- Год выпуска: 2012
Страна: США
Жанр: Фантастика, боевик, комедия
Продолжительность: 01:38:06
Перевод: Профессиональный дублирование--Режиссер: Барри Зонненфельд--В ролях: Уилл Смит, Джош Бролин, Томми Ли Джонс, Джемейн Клемент, Майкл Стулбарг, Эмма Томпсон, Элис Ив, Майк Колтер, Билл Хэйдер, Майкл Чернус, Николь Шерзингер, Дэвид Раш-- Агент Джей узнает, что никакого защитного галактического щита, способного отразить иноземный удар, не существует. Агент Кей не построил его, потому что был убит в 1969 году. Агент Джей должен совершить путешествие во времени, чтобы спасти Землю и жизнь напарника.-- Качество: BDRip-AVC
Формат видео: MKV
Видео кодек: H.264, 720x384, 23.976 fps, 1359 kb/s
Аудио кодек: AC3, 48.0 kHz, 6 channels, 384 kb/s--

Рейтинг фильма --
General
Unique ID : 186838603890384992717273907936714231909 (0x8C8FCE631F89286AA40D650C84171065)
Complete name : F:\Kino\Фантастические и комикси\Люди в черном Трилогия\2012. Люди в черном 3..mkv
Format : Matroska
Format version : Version 2
File size : 1.20 GiB
Duration : 1 h 38 min
Overall bit rate : 1 745 kb/s
Encoded date : UTC 2012-09-20 09:39:46
Writing application : mkvmerge v5.8.0 ('No Sleep / Pillow') built on Sep 2 2012 15:37:04
Writing library : libebml v1.2.3 + libmatroska v1.3.0
Video
ID : 1
Format : AVC
Format/Info : Advanced Video Codec
Format profile : High 10@L5.1
Format settings, CABAC : Yes
Format settings, RefFrames : 15 frames
Codec ID : V_MPEG4/ISO/AVC
Duration : 1 h 38 min
Bit rate : 1 359 kb/s
Width : 720 pixels
Height : 384 pixels
Display aspect ratio : 1.85:1
Frame rate mode : Constant
Frame rate : 23.976 (24000/1001) FPS
Color space : YUV
Chroma subsampling : 4:2:0
Bit depth : 10 bits
Scan type : Progressive
Bits/(Pixel*Frame) : 0.205
Stream size : 930 MiB (76%)
Writing library : x264 core 125 r2200+677M 3a754e7
Encoding settings : cabac=1 / ref=15 / deblock=1:-2:-2 / analyse=0x3:0x133 / me=umh / subme=11 / psy=1 / fade_compensate=0.00 / psy_rd=1.00:0.15 / mixed_ref=1 / me_range=32 / chroma_me=1 / trellis=2 / 8x8dct=1 / cqm=0 / deadzone=21,11 / fast_pskip=1 / chroma_qp_offset=-3 / threads=4 / lookahead_threads=1 / sliced_threads=0 / nr=0 / decimate=1 / interlaced=0 / bluray_compat=0 / constrained_intra=0 / fgo=0 / bframes=14 / b_pyramid=2 / b_adapt=2 / b_bias=0 / direct=3 / weightb=1 / open_gop=0 / weightp=1 / keyint=230 / keyint_min=23 / scenecut=40 / intra_refresh=0 / rc_lookahead=60 / rc=2pass / mbtree=1 / bitrate=1359 / ratetol=1.0 / qcomp=0.60 / qpmin=0 / qpmax=81 / qpstep=4 / cplxblur=20.0 / qblur=0.5 / vbv_maxrate=50000 / vbv_bufsize=50000 / nal_hrd=none / ip_ratio=1.40 / aq=1:1.00
Language : English
Default : Yes
Forced : No
Color range : Limited
Color primaries : BT.709
Transfer characteristics : BT.709
Matrix coefficients : BT.709
Audio
ID : 2
Format : AC-3
Format/Info : Audio Coding 3
Format settings, Endianness : Big
Codec ID : A_AC3
Duration : 1 h 38 min
Bit rate mode : Constant
Bit rate : 384 kb/s
Channel(s) : 6 channels
Channel positions : Front: L C R, Side: L R, LFE
Sampling rate : 48.0 kHz
Frame rate : 31.250 FPS (1536 SPF)
Bit depth : 16 bits
Compression mode : Lossy
Stream size : 269 MiB (22%)
Language : Russian
Service kind : Complete Main
Default : Yes
Forced : No

Release was prepared by RG Cinema

If your ratio falls below 0.3, you will not be able to download Torrents! More about the rating.

[toptorrent.pw].t5761.torrent
Torrent: Registered [ 2019-04-11 21:12 ] · 5778FC6155FAA02BF93B75544EAEBF986D3F2F82

Download .torrent

Download

17 KB

Status: checked
Completed: 0 times
Size: 3.27 GB
Rate: 
(Vote: 2)
Has thanked: 2  Thanks   (List)
terms.php
Display posts:    
Reply to topic

Current time is: 20-Jul 06:32

All times are UTC + 5



You cannot post new topics in this forum
You cannot reply to topics in this forum
You cannot edit your posts in this forum
You cannot delete your posts in this forum
You cannot vote in polls in this forum
You cannot attach files in this forum
You can download files in this forum