1+1: Голливудская история / The Upside (Нил Бёргер / Neil Burger) [2019, Драма, комедия, WEB-DLRip] DUB [iTunes]

Reply to topic
 
Author Message

_Deimos_ ®

VIP пользователь

Gender: Male

Longevity: 1 year 10 months

Posts: 379

Карма: 33000 [+]

Наличие запрета:

[Profile] [PM]

Post 11-Apr-2019 21:58

[Quote]

1+1: Голливудская история-
--Год выпуска: 2019
Страна: США
Жанр: Драма, комедия
Продолжительность: 02:05:58
Перевод: Дублированный [iTunes]--Режиссёр: Нил Бёргер--В ролях: Брайан Крэнстон, Кевин Харт, Николь Кидман, Джулианна Маргулис, Голшифте Фарахани, Тейт Донован, Женевьева Энджелсон, Эйджа Наоми Кинг, Амара Каран, Джахи Диалло Уинстон-- : Пентхаус в Нью Йорке, целый гараж коллекционных автомобилей и миллиарды скучающих президентов на банковском счету. Если есть тот, кто готов рискнуть состоянием ради минуты подлинного счастья, найдется и тот, кто ему в этом поможет.-- Качество: WEB-DLRip
Формат видео: AVI
Видео: Xvid, 704x384, 23.976 fps, 1266 kb/s
Аудио: AC3, 48.0 kHz, 6 channels, 384 kb/s--

Рейтинг фильма --
General
Complete name : G:\Kino\The.Upside.2019.WEB-DLRip.ELEKTRI4KA.UNIONGANG.avi
Format : AVI
Format/Info : Audio Video Interleave
Format profile : OpenDML
File size : 1.46 GiB
Duration : 2 h 5 min
Overall bit rate : 1 662 kb/s
Movie name : The.Upside.2019.ELEKTRI4KA.UNIONGANG
Writing application : Lavf57.71.100
Video
ID : 0
Format : MPEG-4 Visual
Format profile : Advanced Simple@L5
Format settings, BVOP : 1
Format settings, QPel : No
Format settings, GMC : No warppoints
Format settings, Matrix : Default (H.263)
Codec ID : XVID
Codec ID/Hint : XviD
Duration : 2 h 5 min
Bit rate : 1 266 kb/s
Width : 720 pixels
Height : 384 pixels
Display aspect ratio : 1.85:1
Frame rate : 23.976 (24000/1001) FPS
Color space : YUV
Chroma subsampling : 4:2:0
Bit depth : 8 bits
Scan type : Progressive
Compression mode : Lossy
Bits/(Pixel*Frame) : 0.191
Stream size : 1.11 GiB (76%)
Writing library : XviD 67
Audio
ID : 1
Format : AC-3
Format/Info : Audio Coding 3
Format settings, Endianness : Big
Codec ID : 2000
Duration : 2 h 5 min
Bit rate mode : Constant
Bit rate : 384 kb/s
Channel(s) : 6 channels
Channel positions : Front: L C R, Side: L R, LFE
Sampling rate : 48.0 kHz
Frame rate : 31.250 FPS (1536 SPF)
Bit depth : 16 bits
Compression mode : Lossy
Stream size : 346 MiB (23%)
Alignment : Aligned on interleaves
Interleave, duration : 32 ms (0.77 video frame)
Title : itunes.ELEKTRI4KA.UNIONGANG
Service kind : Complete Main

Release was prepared by RG Cinema

Display posts:    
Reply to topic

Current time is: 13-Dec 02:55

All times are UTC + 5



You cannot post new topics in this forum
You cannot reply to topics in this forum
You cannot edit your posts in this forum
You cannot delete your posts in this forum
You cannot vote in polls in this forum
You cannot attach files in this forum
You cannot download files in this forum