Матрица: Трилогия / The Matrix: Trilogy (Энди Вачовски, Лана Вачовски) [1999-2003 г., Фантастика, боевик, BDRip] DUB

Reply to topic
DL-List and Torrent activity
Size:  6.29 GB   |    Registered:  14 days   |    Completed:  0 times
Seeders:  1  [  0 KB/s  ]   Show peers in full details
 
 
 
 
Author Message

_Deimos_ ®

VIP пользователь

Gender: Male

Longevity: 1 year 2 months

Posts: 292

Карма: 33000 [+]

Location: Топторрент

Наличие запрета:

[Profile] [PM]

Post 11-Apr-2019 22:52

[Quote]


-- Год выпуска: 1999
Страна: США
Жанр: Фантастика, боевик
Продолжительность: 02:10:44
Перевод: Профессиональный дублирование--Режиссер: Энди Вачовски, Лана Вачовски--В ролях: Киану Ривз (Neo), Лоренс Фишбёрн (Morpheus), Кэрри-Энн Мосс (Trinity), Хьюго Уивинг (Agent Smith), Джо Пантольяно (Cypher), Глория Фостер (Oracle), Маркус Чонг (Tank), Джулиан Араханга (Apoc), Мэтт Доран (Mouse), Белинда МакКлори (Switch), Энтони Рэй Паркер (Dozer), Пол Годдард (Agent Brown)-- Жизнь Томаса Андерсона разделена на две части: днём он самый обычный офисный работник, получающий нагоняи от начальства, а ночью превращается в хакера по имени Нео, и нет места в сети, куда он не смог бы дотянуться. Но однажды всё меняется - герой, сам того не желая, узнаёт страшную правду: всё, что его окружает - не более, чем иллюзия, Матрица, а люди - всего лишь источник питания для искусственного интеллекта, поработившего человечество. И только Нео под силу изменить расстановку сил в этом ставшем вдруг чужим и страшным мире.-- Качество: BDRip
Формат видео: AVI
Видео кодек: Xvid, 720x304, 25 fps, 1789 kb/s
Аудио кодек: AC3, 48.0 kHz, 6 channels, 448 kb/s--

Рейтинг фильма --
General
Complete name : F:\Kino\Фантастические и комикси\Матрица Трилогия\Матрица. 1999.avi
Format : AVI
Format/Info : Audio Video Interleave
Format profile : OpenDML
File size : 2.05 GiB
Duration : 2 h 10 min
Overall bit rate : 2 250 kb/s
Movie name : Матрица / Matrix, The (1999)
Director : SENATOR (UnSeeN)
Writing application : VirtualDubMod 1.5.4.1 (build 2178/release)
Copyright : HQ-ViDEO (www.hq-video.ru)
Comment : 12.11.2007
Video
ID : 0
Format : MPEG-4 Visual
Format profile : Advanced Simple@L5
Format settings, BVOP : 2
Format settings, QPel : No
Format settings, GMC : No warppoints
Format settings, Matrix : Custom
Muxing mode : Packed bitstream
Codec ID : XVID
Codec ID/Hint : XviD
Duration : 2 h 10 min
Bit rate : 1 789 kb/s
Width : 720 pixels
Height : 304 pixels
Display aspect ratio : 2.35:1
Frame rate : 25.000 FPS
Color space : YUV
Chroma subsampling : 4:2:0
Bit depth : 8 bits
Scan type : Progressive
Compression mode : Lossy
Bits/(Pixel*Frame) : 0.327
Stream size : 1.63 GiB (80%)
Writing library : XviD 1.1.0 (UTC 2005-11-22)
Audio
ID : 1
Format : AC-3
Format/Info : Audio Coding 3
Format settings, Endianness : Big
Codec ID : 2000
Duration : 2 h 10 min
Bit rate mode : Constant
Bit rate : 448 kb/s
Channel(s) : 6 channels
Channel positions : Front: L C R, Side: L R, LFE
Sampling rate : 48.0 kHz
Frame rate : 31.250 FPS (1536 SPF)
Bit depth : 16 bits
Compression mode : Lossy
Delay relative to video : 600 ms
Stream size : 419 MiB (20%)
Alignment : Split accross interleaves
Interleave, duration : 40 ms (1.00 video frame)
Service kind : Complete Main

-- Год выпуска: 2003
Страна: США
Жанр: Фантастика, боевик
Продолжительность: 02:12:38
Перевод: Профессиональный дублирование--Режиссер: Энди Вачовски, Лана Вачовски--В ролях: Киану Ривз (Neo), Хьюго Уивинг (Agent Smith), Кэрри-Энн Мосс (Trinity), Лоренс Фишбёрн (Morpheus), Хэролд Перрино (Link), Джада Пинкетт Смит (Niobe), Моника Беллуччи (Persephone), Глория Фостер (The Oracle), Джина Торрес (Cas), Нэтаниэл Лис (Mifune), Гарри Дж. Ленникс (Commander Lock), Колин Чоу (Seraph)-- Борцы за свободу Нео, Тринити и Морфеус продолжают руководить восстанием людей против Армии Машин. Для уничтожения системы репрессий и эксплуатации они вынуждены прибегнуть не только к арсеналу превосходного оружия, но и к своим выдающимся навыкам. Участие в миссии по спасению человеческой расы от ее полного истребления приносит им более глубокое понимание конструкции Матрицы и осознание центральной роли Нео в судьбе человечества.-- Качество: BDRip
Формат видео: AVI
Видео кодек: Xvid, 720x304, 25 fps, 1758 kb/s
Аудио кодек: AC3, 48.0 kHz, 6 channels, 448 kb/s--

Рейтинг фильма --
General
Complete name : F:\Kino\Фантастические и комикси\Матрица Трилогия\Матрица. 2002.avi
Format : AVI
Format/Info : Audio Video Interleave
Format profile : OpenDML
File size : 2.06 GiB
Duration : 2 h 12 min
Overall bit rate : 2 219 kb/s
Movie name : Матрица: Перезагрузка / Matrix Reloaded, The (2003)
Director : SENATOR (UnSeeN)
Writing application : VirtualDubMod 1.5.4.1 (build 2178/release)
Copyright : HQ-ViDEO (www.hq-video.ru)
Comment : 12.11.2007
Video
ID : 0
Format : MPEG-4 Visual
Format profile : Advanced Simple@L5
Format settings, BVOP : 2
Format settings, QPel : No
Format settings, GMC : No warppoints
Format settings, Matrix : Custom
Muxing mode : Packed bitstream
Codec ID : XVID
Codec ID/Hint : XviD
Duration : 2 h 12 min
Bit rate : 1 758 kb/s
Width : 720 pixels
Height : 304 pixels
Display aspect ratio : 2.35:1
Frame rate : 25.000 FPS
Color space : YUV
Chroma subsampling : 4:2:0
Bit depth : 8 bits
Scan type : Progressive
Compression mode : Lossy
Bits/(Pixel*Frame) : 0.321
Stream size : 1.63 GiB (79%)
Writing library : XviD 1.1.0 (UTC 2005-11-22)
Audio
ID : 1
Format : AC-3
Format/Info : Audio Coding 3
Format settings, Endianness : Big
Codec ID : 2000
Duration : 2 h 12 min
Bit rate mode : Constant
Bit rate : 448 kb/s
Channel(s) : 6 channels
Channel positions : Front: L C R, Side: L R, LFE
Sampling rate : 48.0 kHz
Frame rate : 31.250 FPS (1536 SPF)
Bit depth : 16 bits
Compression mode : Lossy
Stream size : 425 MiB (20%)
Alignment : Split accross interleaves
Interleave, duration : 40 ms (1.00 video frame)
Interleave, preload duration : 500 ms
Service kind : Complete Main

-- Год выпуска: 2003
Страна: США
Жанр: Фантастика, боевик
Продолжительность: 02:03:58
Перевод: Профессиональный дублирование--Режиссер: Энди Вачовски, Лана Вачовски--В ролях: Киану Ривз (Neo), Хьюго Уивинг (Agent Smith), Кэрри-Энн Мосс (Trinity), Лоренс Фишбёрн (Morpheus), Хэролд Перрино (Link), Джина Торрес (Cas), Джада Пинкетт Смит (Niobe), Моника Беллуччи (Persephone), Гарри Дж. Ленникс (Lock), Мэри Элис (The Oracle), Брюс Спенс (Trainman), Нэтаниэл Лис (Mifune)-- Пока армия Машин пытается уничтожить Зион, его жители из последних сил держат оборону. Но удастся ли им предотвратить полное вторжение в город кишащей орды беспощадных машин до того, как Нео соберет все свои силы и положит конец войне?-- Качество: BDRip
Формат видео: AVI
Видео кодек: Xvid, 720x384, 25 fps, 1859 kb/s
Аудио кодек: AC3, 48.0 kHz, 6 channels, 448 kb/s (Русский)
Аудио кодек 2: AC3, 48.0 kHz, 2 channels, 192 kb/s (Немецкий)--

Рейтинг фильма --
General
Complete name : F:\Kino\Фантастические и комикси\Матрица Трилогия\Матрица. 2003.avi
Format : AVI
Format/Info : Audio Video Interleave
Format profile : OpenDML
File size : 2.18 GiB
Duration : 2 h 3 min
Overall bit rate : 2 517 kb/s
Movie name : Матрица: Революция / Matrix Revolutions, The (2003)
Director : SENATOR (UnSeeN)
Writing application : VirtualDubMod 1.5.4.1 (build 2178/release)
Writing library : VirtualDubMod build 2178/release
Copyright : HQ-ViDEO (www.hq-video.ru)
Comment : 12.11.2007
Video
ID : 0
Format : MPEG-4 Visual
Format profile : Advanced Simple@L5
Format settings, BVOP : 2
Format settings, QPel : No
Format settings, GMC : No warppoints
Format settings, Matrix : Custom
Muxing mode : Packed bitstream
Codec ID : XVID
Codec ID/Hint : XviD
Duration : 2 h 3 min
Bit rate : 1 859 kb/s
Width : 720 pixels
Height : 304 pixels
Display aspect ratio : 2.35:1
Frame rate : 25.000 FPS
Color space : YUV
Chroma subsampling : 4:2:0
Bit depth : 8 bits
Scan type : Progressive
Compression mode : Lossy
Bits/(Pixel*Frame) : 0.340
Stream size : 1.61 GiB (74%)
Title : Матрица: Революция / Matrix Revolutions, The (2003)
Writing library : XviD 1.1.0 (UTC 2005-11-22)
Audio #1
ID : 1
Format : AC-3
Format/Info : Audio Coding 3
Format settings, Endianness : Big
Codec ID : 2000
Duration : 2 h 3 min
Bit rate mode : Constant
Bit rate : 448 kb/s
Channel(s) : 6 channels
Channel positions : Front: L C R, Side: L R, LFE
Sampling rate : 48.0 kHz
Frame rate : 31.250 FPS (1536 SPF)
Bit depth : 16 bits
Compression mode : Lossy
Delay relative to video : 524 ms
Stream size : 397 MiB (18%)
Alignment : Split accross interleaves
Interleave, duration : 40 ms (1.00 video frame)
Interleave, preload duration : 500 ms
Service kind : Complete Main
Audio #2
ID : 2
Format : AC-3
Format/Info : Audio Coding 3
Format settings, Endianness : Big
Codec ID : 2000
Duration : 2 h 3 min
Bit rate mode : Constant
Bit rate : 192 kb/s
Channel(s) : 2 channels
Channel positions : Front: L R
Sampling rate : 48.0 kHz
Frame rate : 31.250 FPS (1536 SPF)
Bit depth : 16 bits
Compression mode : Lossy
Delay relative to video : 650 ms
Stream size : 170 MiB (8%)
Alignment : Split accross interleaves
Interleave, duration : 40 ms (1.00 video frame)
Service kind : Complete Main

Release was prepared by RG Cinema

If your ratio falls below 0.3, you will not be able to download Torrents! More about the rating.

[toptorrent.pw].t5764.torrent
Torrent: Registered [ 2019-04-11 22:52 ] · F8AC128859BFCE0B117FA687DE1DC32B8C641874

Download .torrent

Download

16 KB

Status: checked
Completed: 0 times
Size: 6.29 GB
Rate: 
(Vote: 0)
Has thanked: 0  Thanks
terms.php
Display posts:    
Reply to topic

Current time is: 26-Apr 00:52

All times are UTC + 5



You cannot post new topics in this forum
You cannot reply to topics in this forum
You cannot edit your posts in this forum
You cannot delete your posts in this forum
You cannot vote in polls in this forum
You cannot attach files in this forum
You can download files in this forum