Киборг-полицейский: Трилогия / Cyborg Cop: Trilogy (Сэм Ферстенберг, Йосси Уайн) [1993, 1994, 1995 г., Фантастика, боевик, DVDRip-AVC] AVO

Reply to topic
DL-List and Torrent activity
Size:  4.35 GB   |    Registered:  3 months 8 days   |    Completed:  0 times
Seeders:  1  [  0 KB/s  ]   Show peers in full details
 
 
 
 
Author Message

_Deimos_ ®

VIP пользователь

Gender: Male

Longevity: 1 year 5 months

Posts: 372

Карма: 33000 [+]

Наличие запрета:

[Profile] [PM]

Post 12-Apr-2019 00:02

[Quote]

Киборг-полицейский / Cyborg Cop - -- Год выпуска: 1993
Страна: США
Жанр: Фантастика, боевик
Продолжительность: 01:32:18
Перевод: Авторский одноголосый закадровый--Режиссер: Сэм Ферстенберг--В ролях: Дэвид Брэдли , Тодд Дженсен, Элонна Шоу, Руфус Суорт, Джон Риз-Дэйвис и др.-- Двоих полицейских, братьев, увольняют с работы за то, что они убили маньяка, взявшего в заложницы девушку. Маньяк оказался сыном крупного издателя. После этого им предложили опасное задание, а один из братьев, Джек, отказался. Задание оказалось ловушкой — отряд был уничтожен, а злодей-ученый Кессель превратил брата в киборга-убийцу в своей лаборатории. Потом эти существа продавались всем, у кого на это были деньги. Узнав, что его брат пропал, Джек отправляется его выручать. И надо сказать, что этот парень умел за себя постоять.-- Качество: DVDRip-AVC
Формат видео: MKV
Видео кодек: H.264, 720x554, 25 fps, 1864 kb/s
Аудио кодек: AC3, 48.0 kHz, 2 channels, 192 kb/s - AVO [Живов] [rus]
Аудио кодек 2: AC3, 48.0 kHz, 2 channels, 192 kb/s - Original [eng]--
General
Unique ID : 208336031215484035807675009223319754774 (0x9CBC0F62CBFAC790A1C97D9B08321816)
Complete name : F:\Kino\Фантастические и комикси\Киборг полицейский Трилогия\Киборг-полицейский (1993).mkv
Format : Matroska
Format version : Version 4 / Version 2
File size : 1.45 GiB
Duration : 1 h 32 min
Overall bit rate : 2 250 kb/s
Movie name : Cyborg Cop (1993)
Encoded date : UTC 2016-07-07 09:13:29 / UTC
Writing application : mkvmerge v9.1.0 ('Little Earthquakes') 64bit
Writing library : libebml v1.3.3 + libmatroska v1.4.4 / Lavf55.12.0
Cover : Yes
Attachments : Cover.jpg
Video
ID : 1
Format : AVC
Format/Info : Advanced Video Codec
Format profile : High@L4.1
Format settings, CABAC : Yes
Format settings, RefFrames : 11 frames
Codec ID : V_MPEG4/ISO/AVC
Duration : 1 h 32 min
Bit rate : 1 864 kb/s
Width : 720 pixels
Height : 554 pixels
Display aspect ratio : 4:3
Frame rate mode : Constant
Frame rate : 25.000 FPS
Color space : YUV
Chroma subsampling : 4:2:0
Bit depth : 8 bits
Scan type : Progressive
Bits/(Pixel*Frame) : 0.187
Stream size : 1.17 GiB (81%)
Title : MPEG-4, 720x554, 25.000 fps ~1864 kbps
Writing library : x264 core 142 r2479 dd79a61
Encoding settings : cabac=1 / ref=11 / deblock=1:-2:-2 / analyse=0x3:0x133 / me=umh / subme=11 / psy=1 / psy_rd=1.00:0.13 / mixed_ref=1 / me_range=32 / chroma_me=1 / trellis=2 / 8x8dct=1 / cqm=0 / deadzone=21,11 / fast_pskip=0 / chroma_qp_offset=-3 / threads=6 / lookahead_threads=1 / sliced_threads=0 / nr=0 / decimate=1 / interlaced=0 / bluray_compat=0 / constrained_intra=0 / bframes=16 / b_pyramid=2 / b_adapt=2 / b_bias=0 / direct=3 / weightb=1 / open_gop=0 / weightp=2 / keyint=250 / keyint_min=25 / scenecut=40 / intra_refresh=0 / rc_lookahead=60 / rc=2pass / mbtree=0 / bitrate=1864 / ratetol=1.0 / qcomp=0.60 / qpmin=0 / qpmax=69 / qpstep=4 / cplxblur=20.0 / qblur=0.5 / vbv_maxrate=62500 / vbv_bufsize=78125 / nal_hrd=none / filler=0 / ip_ratio=1.40 / pb_ratio=1.30 / aq=1:1.00
Language : English
Default : Yes
Forced : No
Color range : Limited
Color primaries : BT.601 PAL
Transfer characteristics : BT.709
Matrix coefficients : BT.601
Statistics Tags Issue : mkvmerge v9.1.0 ('Little Earthquakes') 64bit 2016-07-07 09:13:29 / mkvmerge v9.1.0 ('Little Earthquakes') 64bit 2016-07-07 09:13:29 / UTC
FromStats_BitRate : 1864075
FromStats_Duration : 01:32:17.640000000
FromStats_FrameCount : 138441
FromStats_StreamSize : 1290322220
Audio #1
ID : 2
Format : AC-3
Format/Info : Audio Coding 3
Format settings, Endianness : Big
Codec ID : A_AC3
Duration : 1 h 32 min
Bit rate mode : Constant
Bit rate : 192 kb/s
Channel(s) : 2 channels
Channel positions : Front: L R
Sampling rate : 48.0 kHz
Frame rate : 31.250 FPS (1536 SPF)
Bit depth : 16 bits
Compression mode : Lossy
Stream size : 127 MiB (9%)
Title : 48 KHz, AC3, 2 ch ~192 Kbps - AVO [Живов]
Language : Russian
Service kind : Complete Main
Default : Yes
Forced : No
Statistics Tags Issue : mkvmerge v9.1.0 ('Little Earthquakes') 64bit 2016-07-07 09:13:29 / mkvmerge v9.1.0 ('Little Earthquakes') 64bit 2016-07-07 09:13:29 / UTC
FromStats_BitRate : 192000
FromStats_Duration : 01:32:16.992000000
FromStats_FrameCount : 173031
FromStats_StreamSize : 132887808
Audio #2
ID : 3
Format : AC-3
Format/Info : Audio Coding 3
Format settings, Endianness : Big
Codec ID : A_AC3
Duration : 1 h 32 min
Bit rate mode : Constant
Bit rate : 192 kb/s
Channel(s) : 2 channels
Channel positions : Front: L R
Sampling rate : 48.0 kHz
Frame rate : 31.250 FPS (1536 SPF)
Bit depth : 16 bits
Compression mode : Lossy
Stream size : 127 MiB (9%)
Title : 48 KHz, AC3, 2 ch ~192 Kbps - Original
Language : English
Service kind : Complete Main
Default : No
Forced : No
Statistics Tags Issue : mkvmerge v9.1.0 ('Little Earthquakes') 64bit 2016-07-07 09:13:29 / mkvmerge v9.1.0 ('Little Earthquakes') 64bit 2016-07-07 09:13:29 / UTC
FromStats_BitRate : 192000
FromStats_Duration : 01:32:16.992000000
FromStats_FrameCount : 173031
FromStats_StreamSize : 132887808
Menu
00:00:00.000 : :Chapter 1
00:07:58.520 : :Chapter 2
00:15:38.200 : :Chapter 3
00:23:18.520 : :Chapter 4
00:30:58.360 : :Chapter 5
00:38:38.200 : :Chapter 6
00:46:18.520 : :Chapter 7
00:53:58.040 : :Chapter 8
01:01:38.200 : :Chapter 9
01:09:18.040 : :Chapter 10
01:16:58.040 : :Chapter 11
01:24:37.880 : :Chapter 12
Киборг-полицейский 2 / Cyborg Cop 2- -- Год выпуска: 1994
Страна: США
Жанр: Фантастика, боевик
Продолжительность: 01:33:24
Перевод: Авторский одноголосый закадровый--Режиссер: Сэм Ферстенберг--В ролях: Дэвид Брэдли, Морган Хантер, Джилл Пирс, Виктор Меллени, Дуглас Бристоу, Дэйл Каттс и др.-- Человеческая душа или механический разум — что сильнее в этом безжалостном мире? И в самом худшем кошмаре полицейский Джек Райен не хотел бы представить себе, что ему вновь придется сойтись в смертельной схватке с целым отрядом киборгов-убийц!-- Качество: DVDRip-AVC
Формат видео: MKV
Видео кодек: H.264, 720x548, 25 fps, 1648 kb/s
Аудио кодек: AC3, 48.0 kHz, 2 channels, 192 kb/s - AVO [Живов] [rus]
Аудио кодек 2: AC3, 48.0 kHz, 2 channels, 192 kb/s - AVO [Гаврилов] [rus]
Аудио кодек 3: AC3, 48.0 kHz, 2 channels, 192 kb/s - Original [eng]--
General
Unique ID : 227598926729592080146180081240682073157 (0xAB39F575E033A3FF8D52A40EAE990C45)
Complete name : F:\Kino\Фантастические и комикси\Киборг полицейский Трилогия\Киборг-полицейский 2 (1994).mkv
Format : Matroska
Format version : Version 4 / Version 2
File size : 1.45 GiB
Duration : 1 h 33 min
Overall bit rate : 2 226 kb/s
Movie name : Cyborg Cop 2 (1994)
Encoded date : UTC 2016-07-08 10:34:26 / UTC
Writing application : mkvmerge v9.1.0 ('Little Earthquakes') 64bit
Writing library : libebml v1.3.3 + libmatroska v1.4.4 / Lavf55.12.0
Cover : Yes
Attachments : Cover.jpg
Video
ID : 1
Format : AVC
Format/Info : Advanced Video Codec
Format profile : High@L4.1
Format settings, CABAC : Yes
Format settings, RefFrames : 12 frames
Codec ID : V_MPEG4/ISO/AVC
Duration : 1 h 33 min
Bit rate : 1 648 kb/s
Width : 720 pixels
Height : 548 pixels
Display aspect ratio : 4:3
Frame rate mode : Constant
Frame rate : 25.000 FPS
Color space : YUV
Chroma subsampling : 4:2:0
Bit depth : 8 bits
Scan type : Progressive
Bits/(Pixel*Frame) : 0.167
Stream size : 1.05 GiB (72%)
Title : MPEG-4, 720x548, 25.000 fps ~1648 kbps
Writing library : x264 core 142 r2479 dd79a61
Encoding settings : cabac=1 / ref=12 / deblock=1:-2:-2 / analyse=0x3:0x133 / me=umh / subme=11 / psy=1 / psy_rd=1.00:0.12 / mixed_ref=1 / me_range=32 / chroma_me=1 / trellis=2 / 8x8dct=1 / cqm=0 / deadzone=21,11 / fast_pskip=0 / chroma_qp_offset=-3 / threads=6 / lookahead_threads=1 / sliced_threads=0 / nr=0 / decimate=1 / interlaced=0 / bluray_compat=0 / constrained_intra=0 / bframes=16 / b_pyramid=2 / b_adapt=2 / b_bias=0 / direct=3 / weightb=1 / open_gop=0 / weightp=2 / keyint=250 / keyint_min=25 / scenecut=40 / intra_refresh=0 / rc_lookahead=60 / rc=2pass / mbtree=0 / bitrate=1648 / ratetol=1.0 / qcomp=0.60 / qpmin=0 / qpmax=69 / qpstep=4 / cplxblur=20.0 / qblur=0.5 / vbv_maxrate=62500 / vbv_bufsize=78125 / nal_hrd=none / filler=0 / ip_ratio=1.40 / pb_ratio=1.30 / aq=1:1.00
Language : English
Default : Yes
Forced : No
Color range : Limited
Color primaries : BT.601 PAL
Transfer characteristics : BT.709
Matrix coefficients : BT.601
Statistics Tags Issue : mkvmerge v9.1.0 ('Little Earthquakes') 64bit 2016-07-08 10:34:26 / mkvmerge v9.1.0 ('Little Earthquakes') 64bit 2016-07-08 10:34:26 / UTC
FromStats_BitRate : 1647961
FromStats_Duration : 01:33:24.280000000
FromStats_FrameCount : 140107
FromStats_StreamSize : 1154454440
Audio #1
ID : 2
Format : AC-3
Format/Info : Audio Coding 3
Format settings, Endianness : Big
Codec ID : A_AC3
Duration : 1 h 33 min
Bit rate mode : Constant
Bit rate : 192 kb/s
Channel(s) : 2 channels
Channel positions : Front: L R
Sampling rate : 48.0 kHz
Frame rate : 31.250 FPS (1536 SPF)
Bit depth : 16 bits
Compression mode : Lossy
Stream size : 128 MiB (9%)
Title : 48 KHz, AC3, 2 ch ~192 Kbps - AVO [Живов]
Language : Russian
Service kind : Complete Main
Default : Yes
Forced : No
Statistics Tags Issue : mkvmerge v9.1.0 ('Little Earthquakes') 64bit 2016-07-08 10:34:26 / mkvmerge v9.1.0 ('Little Earthquakes') 64bit 2016-07-08 10:34:26 / UTC
FromStats_BitRate : 192000
FromStats_Duration : 01:33:23.616000000
FromStats_FrameCount : 175113
FromStats_StreamSize : 134486784
Audio #2
ID : 3
Format : AC-3
Format/Info : Audio Coding 3
Format settings, Endianness : Big
Codec ID : A_AC3
Duration : 1 h 33 min
Bit rate mode : Constant
Bit rate : 192 kb/s
Channel(s) : 2 channels
Channel positions : Front: L R
Sampling rate : 48.0 kHz
Frame rate : 31.250 FPS (1536 SPF)
Bit depth : 16 bits
Compression mode : Lossy
Delay relative to video : -80 ms
Stream size : 128 MiB (9%)
Title : 48 KHz, AC3, 2 ch ~192 Kbps - AVO [Гаврилов]
Language : Russian
Service kind : Complete Main
Default : No
Forced : No
Statistics Tags Issue : mkvmerge v9.1.0 ('Little Earthquakes') 64bit 2016-07-08 10:34:26 / mkvmerge v9.1.0 ('Little Earthquakes') 64bit 2016-07-08 10:34:26 / UTC
FromStats_BitRate : 192000
FromStats_Duration : 01:33:23.648000000
FromStats_FrameCount : 175114
FromStats_StreamSize : 134487552
Audio #3
ID : 4
Format : AC-3
Format/Info : Audio Coding 3
Format settings, Endianness : Big
Codec ID : A_AC3
Duration : 1 h 33 min
Bit rate mode : Constant
Bit rate : 192 kb/s
Channel(s) : 2 channels
Channel positions : Front: L R
Sampling rate : 48.0 kHz
Frame rate : 31.250 FPS (1536 SPF)
Bit depth : 16 bits
Compression mode : Lossy
Stream size : 128 MiB (9%)
Title : 48 KHz, AC3, 2 ch ~192 Kbps - Original
Language : English
Service kind : Complete Main
Default : No
Forced : No
Statistics Tags Issue : mkvmerge v9.1.0 ('Little Earthquakes') 64bit 2016-07-08 10:34:26 / mkvmerge v9.1.0 ('Little Earthquakes') 64bit 2016-07-08 10:34:26 / UTC
FromStats_BitRate : 192000
FromStats_Duration : 01:33:23.616000000
FromStats_FrameCount : 175113
FromStats_StreamSize : 134486784
Menu
00:00:00.000 : :Chapter 1
00:08:02.360 : :Chapter 2
00:15:47.960 : :Chapter 3
00:23:33.560 : :Chapter 4
00:31:19.160 : :Chapter 5
00:39:04.760 : :Chapter 6
00:46:50.680 : :Chapter 7
00:54:35.800 : :Chapter 8
01:02:21.400 : :Chapter 9
01:10:07.160 : :Chapter 10
01:17:52.760 : :Chapter 11
01:25:38.360 : :Chapter 12
Киборг-полицейский 3 / Cyborg Cop 3- -- Год выпуска: 1995
Страна: США
Жанр: Фантастика, боевик
Продолжительность: 01:30:12
Перевод: Авторский одноголосый закадровый--Режиссер: Йосси Уайн--В ролях: Фрэнк Загарино, Брайан Дженесс, Дженнифер Миллер, Иэн Робертс, Джастин Иллюжн, Майкл Браннер и др.-- Компания Дельтатех изготовляет киборгов. Об этом узнаёт тележурналистка Эвелин Рид — она хочет подготовить телерепортаж и разоблачить злодеев. Для того чтобы помешать журналистке и избежать международного скандала на предприятие отправляются два спецагента Макс и Святой, помощники федерального маршала.
Агенты слишком увлекаются преследованием своей жертвы, и на них обрушивается армия андроидов. Теперь Макс и Святой должны попытаться остановить эксперименты безумного ученого, который планирует сделать из своих студентов киборгов-убийц.-- Качество: DVDRip-AVC
Формат видео: MKV
Видео кодек: H.264, 720x552, 25 fps, 1916 kb/s
Аудио кодек: AC3, 48.0 kHz, 2 channels, 192 kb/s - AVO [Гаврилов] [rus]
Аудио кодек 2: AC3, 48.0 kHz, 2 channels, 192 kb/s - Original [eng]--
General
Unique ID : 226467009720072569194034761612986166450 (0xAA5FF5A4A5C619ACAA335B2D6D442CB2)
Complete name : F:\Kino\Фантастические и комикси\Киборг полицейский Трилогия\Киборг-полицейский 3 (1995).mkv
Format : Matroska
Format version : Version 4 / Version 2
File size : 1.45 GiB
Duration : 1 h 30 min
Overall bit rate : 2 302 kb/s
Movie name : Cyborg Cop 3 (1995)
Encoded date : UTC 2016-07-09 09:06:48 / UTC
Writing application : mkvmerge v9.1.0 ('Little Earthquakes') 64bit
Writing library : libebml v1.3.3 + libmatroska v1.4.4 / Lavf55.12.0
Cover : Yes
Attachments : Cover.jpg
Video
ID : 1
Format : AVC
Format/Info : Advanced Video Codec
Format profile : High@L4.1
Format settings, CABAC : Yes
Format settings, RefFrames : 11 frames
Codec ID : V_MPEG4/ISO/AVC
Duration : 1 h 30 min
Bit rate : 1 916 kb/s
Width : 720 pixels
Height : 552 pixels
Display aspect ratio : 4:3
Frame rate mode : Constant
Frame rate : 25.000 FPS
Color space : YUV
Chroma subsampling : 4:2:0
Bit depth : 8 bits
Scan type : Progressive
Bits/(Pixel*Frame) : 0.193
Stream size : 1.18 GiB (81%)
Title : MPEG-4, 720x552, 25.000 fps ~1916 kbps
Writing library : x264 core 142 r2479 dd79a61
Encoding settings : cabac=1 / ref=11 / deblock=1:-2:-2 / analyse=0x3:0x133 / me=umh / subme=11 / psy=1 / psy_rd=1.00:0.12 / mixed_ref=1 / me_range=32 / chroma_me=1 / trellis=2 / 8x8dct=1 / cqm=0 / deadzone=21,11 / fast_pskip=0 / chroma_qp_offset=-3 / threads=6 / lookahead_threads=1 / sliced_threads=0 / nr=0 / decimate=1 / interlaced=0 / bluray_compat=0 / constrained_intra=0 / bframes=16 / b_pyramid=2 / b_adapt=2 / b_bias=0 / direct=3 / weightb=1 / open_gop=0 / weightp=2 / keyint=250 / keyint_min=25 / scenecut=40 / intra_refresh=0 / rc_lookahead=60 / rc=2pass / mbtree=0 / bitrate=1916 / ratetol=1.0 / qcomp=0.60 / qpmin=0 / qpmax=69 / qpstep=4 / cplxblur=20.0 / qblur=0.5 / vbv_maxrate=62500 / vbv_bufsize=78125 / nal_hrd=none / filler=0 / ip_ratio=1.40 / pb_ratio=1.30 / aq=1:1.00
Language : English
Default : Yes
Forced : No
Color range : Limited
Color primaries : BT.601 PAL
Transfer characteristics : BT.709
Matrix coefficients : BT.601
Statistics Tags Issue : mkvmerge v9.1.0 ('Little Earthquakes') 64bit 2016-07-09 09:06:48 / mkvmerge v9.1.0 ('Little Earthquakes') 64bit 2016-07-09 09:06:48 / UTC
FromStats_BitRate : 1916000
FromStats_Duration : 01:30:12.120000000
FromStats_FrameCount : 135303
FromStats_StreamSize : 1296203351
Audio #1
ID : 2
Format : AC-3
Format/Info : Audio Coding 3
Format settings, Endianness : Big
Codec ID : A_AC3
Duration : 1 h 30 min
Bit rate mode : Constant
Bit rate : 192 kb/s
Channel(s) : 2 channels
Channel positions : Front: L R
Sampling rate : 48.0 kHz
Frame rate : 31.250 FPS (1536 SPF)
Bit depth : 16 bits
Compression mode : Lossy
Delay relative to video : -80 ms
Stream size : 124 MiB (8%)
Title : 48 KHz, AC3, 2 ch ~192 Kbps - AVO [Гаврилов]
Language : Russian
Service kind : Complete Main
Default : Yes
Forced : No
Statistics Tags Issue : mkvmerge v9.1.0 ('Little Earthquakes') 64bit 2016-07-09 09:06:48 / mkvmerge v9.1.0 ('Little Earthquakes') 64bit 2016-07-09 09:06:48 / UTC
FromStats_BitRate : 192000
FromStats_Duration : 01:30:12.032000000
FromStats_FrameCount : 169126
FromStats_StreamSize : 129888768
Audio #2
ID : 3
Format : AC-3
Format/Info : Audio Coding 3
Format settings, Endianness : Big
Codec ID : A_AC3
Duration : 1 h 30 min
Bit rate mode : Constant
Bit rate : 192 kb/s
Channel(s) : 2 channels
Channel positions : Front: L R
Sampling rate : 48.0 kHz
Frame rate : 31.250 FPS (1536 SPF)
Bit depth : 16 bits
Compression mode : Lossy
Stream size : 124 MiB (8%)
Title : 48 KHz, AC3, 2 ch ~192 Kbps - Original
Language : English
Service kind : Complete Main
Default : No
Forced : No
Statistics Tags Issue : mkvmerge v9.1.0 ('Little Earthquakes') 64bit 2016-07-09 09:06:48 / mkvmerge v9.1.0 ('Little Earthquakes') 64bit 2016-07-09 09:06:48 / UTC
FromStats_BitRate : 192000
FromStats_Duration : 01:30:12.032000000
FromStats_FrameCount : 169126
FromStats_StreamSize : 129888768
Menu
00:00:00.000 : :Chapter 1
00:07:46.360 : :Chapter 2
00:15:16.120 : :Chapter 3
00:22:45.880 : :Chapter 4
00:30:15.160 : :Chapter 5
00:37:45.080 : :Chapter 6
00:45:14.680 : :Chapter 7
00:52:44.120 : :Chapter 8
01:00:13.880 : :Chapter 9
01:07:43.640 : :Chapter 10
01:15:13.240 : :Chapter 11
01:22:43.000 : :Chapter 12

Release was prepared by RG Cinema

If your ratio falls below 0.3, you will not be able to download Torrents! More about the rating.

[toptorrent.pw].t5765.torrent
Torrent: Registered [ 2019-04-12 00:02 ] · 252373BAED67766E7CEF2BBFFB36026E571DB305

Download .torrent

Download

12 KB

Status: checked
Completed: 0 times
Size: 4.35 GB
Rate: 
(Vote: 1)
Has thanked: 2  Thanks   (List)
terms.php
Display posts:    
Reply to topic

Current time is: 20-Jul 06:55

All times are UTC + 5



You cannot post new topics in this forum
You cannot reply to topics in this forum
You cannot edit your posts in this forum
You cannot delete your posts in this forum
You cannot vote in polls in this forum
You cannot attach files in this forum
You can download files in this forum