День независимости: Дилогия / Independence Day: Dilogy (Роланд Эммерих) [1996, 2016 г., Фантастика, боевик, приключения, BDRip] MVO, DUB

Reply to topic
DL-List and Torrent activity
Size:  2.92 GB   |    Registered:  11 days   |    Completed:  0 times
Seeders:  1  [  0 KB/s  ]   Show peers in full details
 
 
 
 
Author Message

_Deimos_ ®

VIP пользователь

Gender: Male

Longevity: 1 year 2 months

Posts: 292

Карма: 33000 [+]

Location: Топторрент

Наличие запрета:

[Profile] [PM]

Post 14-Apr-2019 13:28

[Quote]

День независимости: Дилогия / Independence Day: Dilogy-
День независимости / Independence Day- -- Год выпуска: 1996
Страна: США
Жанр: Фантастика, боевик
Продолжительность: 02:33:33
Перевод: Профессиональный многоголосый--Режиссер: Роланд Эммерих--В ролях: Уилл Смит (Captain Steven Hiller), Джефф Голдблюм (David Levinson), Билл Пуллман (President Thomas J. Whitmore), Мэри МакДоннелл (First Lady Marilyn Whitmore), Джадд Хёрш (Julius Levinson), Роберт Лоджа (General William Grey), Рэнди Куэйд (Russell Casse), Маргарет Колин (Constance Spano), Вивика А. Фокс (Jasmine Dubrow), Джеймс Ребхорн (Albert Nimziki)-- На Земле принимается сигнал, посланный источником явно неземного происхождения. Источник этот приближается, и на «уши» поднимается вся планета. Никто, правда, не ожидал, что инопланетяне окажутся такими огромными и в таком количестве.-- Качество: BDRip
Формат видео: AVI
Видео кодек: Xvid, 688x288, 23.976 fps, 1160 kb/s
Аудио кодек: AC3, 48.0 kHz, 2 channels, 192 kb/s--

Рейтинг фильма --
General
Complete name : F:\Kino\Фантастические и комикси\День независимости Дилогия\День независимости. 1996.avi
Format : AVI
Format/Info : Audio Video Interleave
File size : 1.46 GiB
Duration : 2 h 33 min
Overall bit rate : 1 361 kb/s
Writing application : VirtualDubMod 1.5.10.3 | www.virtualdub-fr.org || (build 2550/release)
Writing library : VirtualDubMod build 2550/release
Video
ID : 0
Format : MPEG-4 Visual
Format profile : Advanced Simple@L5
Format settings, BVOP : 1
Format settings, QPel : No
Format settings, GMC : No warppoints
Format settings, Matrix : Custom
Codec ID : XVID
Codec ID/Hint : XviD
Duration : 2 h 33 min
Bit rate : 1 160 kb/s
Width : 688 pixels
Height : 288 pixels
Display aspect ratio : 2.40:1
Frame rate : 23.976 (24000/1001) FPS
Color space : YUV
Chroma subsampling : 4:2:0
Bit depth : 8 bits
Scan type : Progressive
Compression mode : Lossy
Bits/(Pixel*Frame) : 0.244
Stream size : 1.24 GiB (85%)
Writing library : XviD 67
Audio
ID : 1
Format : AC-3
Format/Info : Audio Coding 3
Format settings, Endianness : Big
Codec ID : 2000
Duration : 2 h 33 min
Bit rate mode : Constant
Bit rate : 192 kb/s
Channel(s) : 2 channels
Channel positions : Front: L R
Sampling rate : 48.0 kHz
Frame rate : 31.250 FPS (1536 SPF)
Bit depth : 16 bits
Compression mode : Lossy
Stream size : 211 MiB (14%)
Alignment : Split accross interleaves
Interleave, duration : 42 ms (1.00 video frame)
Interleave, preload duration : 500 ms
Service kind : Complete Main
День независимости: Возрождение / Independence Day: Resurgence- -- Год выпуска: 2016
Страна: США
Жанр: Фантастика, боевик, приключения
Продолжительность: 02:00:12
Перевод: Профессиональный дублирование--Режиссер: Роланд Эммерих--В ролях: Лиам Хемсворт, Джефф Голдблюм, Джесси Ашер, Билл Пуллман, Майка Монро, Села Уорд, Уильям Фихтнер, Джадд Хёрш, Брент Спайнер, Патрик Ст. Эсприт, Вивика А. Фокс, Анджела Бейби-- Два десятилетия прошло с момента нашествия инопланетян на Землю. Благодаря технологиям пришельцев человечество в своем развитии шагнуло далеко вперед. Но никакое совершенное оружие не способно остановить второе вторжение беспощадных монстров из космоса. Судьба цивилизации в руках горстки отважных героев – смогут ли они спасти нашу планету от истребления?-- Качество: BDRip
Формат видео: AVI
Видео кодек: Xvid, 720x304, 23.976 fps, 1342 kb/s
Аудио кодек: AC3, 48.0 kHz, 6 channels, 384 kb/s--

Рейтинг фильма --
General
Complete name : F:\Kino\Фантастические и комикси\День независимости Дилогия\День независимости. 2016.avi
Format : AVI
Format/Info : Audio Video Interleave
File size : 1.46 GiB
Duration : 2 h 0 min
Overall bit rate : 1 734 kb/s
Writing application : VirtualDubMod 1.5.10.2 (build 2540/release)
Writing library : VirtualDubMod build 2540/release
Video
ID : 0
Format : MPEG-4 Visual
Format profile : Advanced Simple@L5
Format settings, BVOP : 2
Format settings, QPel : No
Format settings, GMC : No warppoints
Format settings, Matrix : Default (MPEG)
Codec ID : XVID
Codec ID/Hint : XviD
Duration : 2 h 0 min
Bit rate : 1 342 kb/s
Width : 720 pixels
Height : 304 pixels
Display aspect ratio : 2.35:1
Frame rate : 23.976 (24000/1001) FPS
Color space : YUV
Chroma subsampling : 4:2:0
Bit depth : 8 bits
Scan type : Progressive
Compression mode : Lossy
Bits/(Pixel*Frame) : 0.256
Stream size : 1.13 GiB (77%)
Writing library : XviD 1.2.1 (UTC 2008-12-04)
Audio
ID : 1
Format : AC-3
Format/Info : Audio Coding 3
Format settings, Endianness : Big
Codec ID : 2000
Duration : 1 h 59 min
Bit rate mode : Constant
Bit rate : 384 kb/s
Channel(s) : 6 channels
Channel positions : Front: L C R, Side: L R, LFE
Sampling rate : 48.0 kHz
Frame rate : 31.250 FPS (1536 SPF)
Bit depth : 16 bits
Compression mode : Lossy
Stream size : 329 MiB (22%)
Alignment : Split accross interleaves
Interleave, duration : 42 ms (1.00 video frame)
Interleave, preload duration : 500 ms
Service kind : Complete Main

Release was prepared by RG Cinema

If your ratio falls below 0.3, you will not be able to download Torrents! More about the rating.

[toptorrent.pw].t5769.torrent
Torrent: Registered [ 2019-04-14 13:28 ] · ADD205C4F86965CAA1FCB38731447AC54183FE4F

Download .torrent

Download

15 KB

Status: checked
Completed: 0 times
Size: 2.92 GB
Rate: 
(Vote: 0)
Has thanked: 0  Thanks
terms.php
Display posts:    
Reply to topic

Current time is: 26-Apr 00:43

All times are UTC + 5



You cannot post new topics in this forum
You cannot reply to topics in this forum
You cannot edit your posts in this forum
You cannot delete your posts in this forum
You cannot vote in polls in this forum
You cannot attach files in this forum
You can download files in this forum