Бэтмен: Коллекция / Batman: Collection (Тим Бёртон, Джоэл Шумахер, Кристофер Нолан) [1989-2012 г., Фантастика, фэнтези, боевик, триллер, драма, криминал, HDRip-AVC] DUB

Reply to topic
DL-List and Torrent activity
Size:  23.7 GB   |    Registered:  11 days   |    Completed:  0 times
Seeders:  1  [  0 KB/s  ]   Show peers in full details
 
 
 
 
Author Message

_Deimos_ ®

VIP пользователь

Gender: Male

Longevity: 1 year 2 months

Posts: 292

Карма: 33000 [+]

Location: Топторрент

Наличие запрета:

[Profile] [PM]

Post 14-Apr-2019 16:51

[Quote]




-- Год выпуска: 1989
Страна: США, Великобритания
Жанр: Фантастика, боевик, триллер, криминал
Продолжительность: 02:06:20
Перевод: Профессиональный дублирование--Режиссер: Тим Бёртон--В ролях: Майкл Китон, Джек Николсон, Ким Бейсингер, Роберт Вул, Пэт Хингл, Билли Ди Уильямс, Майкл Гоф, Джек Пэланс, Джерри Холл, Трейси Уолтер-- Извечное противостояние добра и зла: сумасшедший, но обаятельный злодей Джокер — смертельная угроза для города Готэма. Бескомпромиссный и загадочный Бэтмэн — его последняя надежда на спасение. Только герой-спаситель не желает раскрывать свое подлинное имя, и не только из скромности… Но настойчивая журналистка полна решимости узнать, кому жители Готэма обязаны всем…-- Качество: HDRip-AVC
Формат видео: MKV
Видео кодек: H.264, 1024x576, 23.976 fps, 1931 kb/s
Аудио кодек: AC3, 48.0 kHz, 6 channels, 384 kb/s | Профессиональный (Дублированный)
Аудио кодек 2: AC3, 48.0 kHz, 2 channels, 192 kb/s | Авторский одноголосый (Гаврилов)
Аудио кодек 3: AC3, 48.0 kHz, 6 channels, 448 kb/s | (Оригинал) [eng]
Субтитры: Русские, Английские--

Рейтинг фильма --
General
Unique ID : 249984773381679966955101748210211137495 (0xBC1150E9F103D7B6A35F328B56F6A7D7)
Complete name : F:\Kino\Фантастические и комикси\Бэтмен Коллекция\1989. Бэтмен..mkv
Format : Matroska
Format version : Version 1
File size : 2.61 GiB
Duration : 2 h 6 min
Overall bit rate : 2 958 kb/s
Movie name : Batman (1989)
Encoded date : UTC 2012-06-30 09:12:37
Writing application : mkvmerge v2.3.0 ('Freak U') built on Sep 8 2008 18:32:16
Writing library : libebml v0.7.7 + libmatroska v0.8.1
Attachments : CronosPro-Bold.ttf / CronosPro-Semibold.ttf / CronosPro-SemiboldIt.ttf
Video
ID : 1
Format : AVC
Format/Info : Advanced Video Codec
Format profile : High@L3.1
Format settings, CABAC : Yes
Format settings, RefFrames : 8 frames
Codec ID : V_MPEG4/ISO/AVC
Duration : 2 h 6 min
Bit rate : 1 931 kb/s
Width : 1 024 pixels
Height : 576 pixels
Display aspect ratio : 16:9
Frame rate mode : Constant
Frame rate : 23.976 (24000/1001) FPS
Color space : YUV
Chroma subsampling : 4:2:0
Bit depth : 8 bits
Scan type : Progressive
Bits/(Pixel*Frame) : 0.137
Stream size : 1.66 GiB (63%)
Writing library : x264 core 92 r1510 33d382a
Encoding settings : cabac=1 / ref=8 / deblock=1:-1:-1 / analyse=0x3:0x133 / me=tesa / subme=10 / psy=1 / psy_rd=1.00:0.10 / mixed_ref=1 / me_range=16 / chroma_me=1 / trellis=2 / 8x8dct=1 / cqm=0 / deadzone=21,11 / fast_pskip=0 / chroma_qp_offset=-3 / threads=6 / sliced_threads=0 / nr=0 / decimate=1 / interlaced=0 / constrained_intra=0 / bframes=3 / b_pyramid=2 / b_adapt=2 / b_bias=0 / direct=3 / wpredb=1 / wpredp=2 / keyint=250 / keyint_min=25 / scenecut=40 / intra_refresh=0 / rc_lookahead=50 / rc=2pass / mbtree=1 / bitrate=1931 / ratetol=1.0 / qcomp=0.60 / qpmin=10 / qpmax=51 / qpstep=4 / cplxblur=20.0 / qblur=0.5 / ip_ratio=1.40 / aq=1:1.00
Default : Yes
Forced : No
Audio #1
ID : 2
Format : AC-3
Format/Info : Audio Coding 3
Format settings, Endianness : Big
Codec ID : A_AC3
Duration : 2 h 6 min
Bit rate mode : Constant
Bit rate : 384 kb/s
Channel(s) : 6 channels
Channel positions : Front: L C R, Side: L R, LFE
Sampling rate : 48.0 kHz
Frame rate : 31.250 FPS (1536 SPF)
Bit depth : 16 bits
Compression mode : Lossy
Delay relative to video : 1 s 920 ms
Stream size : 347 MiB (13%)
Title : AC3 5.1, 384 kbps (Дублированный)
Language : Russian
Service kind : Complete Main
Default : Yes
Forced : No
Audio #2
ID : 3
Format : AC-3
Format/Info : Audio Coding 3
Format settings, Endianness : Big
Codec ID : A_AC3
Duration : 2 h 6 min
Bit rate mode : Constant
Bit rate : 192 kb/s
Channel(s) : 2 channels
Channel positions : Front: L R
Sampling rate : 48.0 kHz
Frame rate : 31.250 FPS (1536 SPF)
Bit depth : 16 bits
Compression mode : Lossy
Delay relative to video : 1 s 920 ms
Stream size : 173 MiB (6%)
Title : AC3 2.0, 192 kbps (Гаврилов)
Language : Russian
Service kind : Complete Main
Default : No
Forced : No
Audio #3
ID : 4
Format : AC-3
Format/Info : Audio Coding 3
Format settings, Endianness : Big
Codec ID : A_AC3
Duration : 2 h 6 min
Bit rate mode : Constant
Bit rate : 448 kb/s
Channel(s) : 6 channels
Channel positions : Front: L C R, Side: L R, LFE
Sampling rate : 48.0 kHz
Frame rate : 31.250 FPS (1536 SPF)
Bit depth : 16 bits
Compression mode : Lossy
Stream size : 405 MiB (15%)
Title : AC3 5.1, 448 kbps (Оригинал)
Language : English
Service kind : Complete Main
Default : No
Forced : No
Text #1
ID : 5
Format : UTF-8
Codec ID : S_TEXT/UTF8
Codec ID/Info : UTF-8 Plain Text
Title : Rus
Language : Russian
Default : Yes
Forced : No
Text #2
ID : 6
Format : ASS
Codec ID : S_TEXT/ASS
Codec ID/Info : Advanced Sub Station Alpha
Compression mode : Lossless
Language : English
Default : No
Forced : No
Menu
00:00:00.000 : en:00:00:00.000
00:02:32.944 : en:00:02:32.944
00:07:03.882 : en:00:07:03.882
00:09:26.858 : en:00:09:26.858
00:12:22.325 : en:00:12:22.325
00:14:42.131 : en:00:14:42.131
00:17:03.981 : en:00:17:03.981
00:20:05.454 : en:00:20:05.454
00:23:58.062 : en:00:23:58.062
00:27:05.999 : en:00:27:05.999
00:30:25.615 : en:00:30:25.615
00:34:12.509 : en:00:34:12.509
00:36:13.797 : en:00:36:13.797
00:38:24.552 : en:00:38:24.552
00:41:06.297 : en:00:41:06.297
00:45:06.746 : en:00:45:06.746
00:48:07.051 : en:00:48:07.051
00:50:51.715 : en:00:50:51.715
00:54:19.131 : en:00:54:19.131
00:57:54.346 : en:00:57:54.346
00:59:34.321 : en:00:59:34.321
01:06:38.036 : en:01:06:38.036
01:12:24.173 : en:01:12:24.173
01:16:29.210 : en:01:16:29.210
01:18:19.111 : en:01:18:19.111
01:21:10.699 : en:01:21:10.699
01:25:30.083 : en:01:25:30.083
01:27:24.990 : en:01:27:24.990
01:29:32.951 : en:01:29:32.951
01:33:58.049 : en:01:33:58.049
01:35:50.370 : en:01:35:50.370
01:38:15.807 : en:01:38:15.807
01:42:43.866 : en:01:42:43.866
01:46:34.263 : en:01:46:34.263
01:50:10.979 : en:01:50:10.979
01:53:20.210 : en:01:53:20.210
01:59:43.218 : en:01:59:43.218
02:02:30.260 : en:02:02:30.260
02:06:19.238 : en:02:06:19.238

-- Год выпуска: 1992
Страна: США, Великобритания
Жанр: Фэнтези, боевик
Продолжительность: 02:06:28
Перевод: Профессиональный дублирование--Режиссер: Тим Бёртон--В ролях: Майкл Китон, Дэнни ДеВито, Мишель Пфайффер, Кристофер Уокен, Майкл Гоф, Майкл Мерфи, Кристи Конэуэй, Эндрю Бринярски, Пэт Хингл, Винсент Скьявелли-- Над Готэмом нависла новая угроза. Два эксцентричных персонажа: мерзкий Пингвин, брошенный родителями и вышедший из городской канализации, и таинственная Женщина-Кошка начали борьбу за власть. Один из них намерен занять кресло мэра города, а другая испытывает романтические чувства к готемскому герою. Сможет ли Бэтмен победить таких грозных противников одновременно?-- Качество: HDRip-AVC
Формат видео: MKV
Видео кодек: H.264, 1024x568, 23.976 fps, 1924 kb/s
Аудио кодек: AC3, 48.0 kHz, 6 channels, 448 kb/s | Профессиональный (Дублированный)
Аудио кодек 2: AC3, 48.0 kHz, 6 channels, 384 kb/s | Авторский одноголосый (Гаврилов)
Аудио кодек 3: AC3, 48.0 kHz, 2 channels, 192 kb/s | Профессиональный многоголосый (НТВ)
Аудио кодек 4: AC3, 48.0 kHz, 6 channels, 448 kb/s | Авторский одноголосый (Живов)
Аудио кодек 5: AC3, 48.0 kHz, 6 channels, 448 kb/s | (Оригинал) [eng]
Субтитры: Русские, Английские--

Рейтинг фильма --
General
Unique ID : 241160185043838323088539116500648977020 (0xB56DC31E07FBAFF4B6B250B385FBE27C)
Complete name : F:\Kino\Фантастические и комикси\Бэтмен Коллекция\1992. Бэтмен возвращается..mkv
Format : Matroska
Format version : Version 1
File size : 3.40 GiB
Duration : 2 h 6 min
Overall bit rate : 3 847 kb/s
Movie name : Batman Returns (1992) BluRay 1080p x264, Eng/Rus [25KADR]
Encoded date : UTC 2012-06-30 10:07:41
Writing application : mkvmerge v2.3.0 ('Freak U') built on Sep 8 2008 18:32:16
Writing library : libebml v0.7.7 + libmatroska v0.8.1
Video
ID : 1
Format : AVC
Format/Info : Advanced Video Codec
Format profile : High@L3.1
Format settings, CABAC : Yes
Format settings, RefFrames : 8 frames
Codec ID : V_MPEG4/ISO/AVC
Duration : 2 h 6 min
Bit rate : 1 924 kb/s
Width : 1 024 pixels
Height : 568 pixels
Display aspect ratio : 16:9
Frame rate mode : Constant
Frame rate : 23.976 (24000/1001) FPS
Color space : YUV
Chroma subsampling : 4:2:0
Bit depth : 8 bits
Scan type : Progressive
Bits/(Pixel*Frame) : 0.138
Stream size : 1.63 GiB (48%)
Writing library : x264 core 92 r1510 33d382a
Encoding settings : cabac=1 / ref=8 / deblock=1:-1:-1 / analyse=0x3:0x133 / me=tesa / subme=10 / psy=1 / psy_rd=1.00:0.10 / mixed_ref=1 / me_range=16 / chroma_me=1 / trellis=2 / 8x8dct=1 / cqm=0 / deadzone=21,11 / fast_pskip=0 / chroma_qp_offset=-3 / threads=6 / sliced_threads=0 / nr=0 / decimate=1 / interlaced=0 / constrained_intra=0 / bframes=3 / b_pyramid=2 / b_adapt=2 / b_bias=0 / direct=3 / wpredb=1 / wpredp=2 / keyint=250 / keyint_min=25 / scenecut=40 / intra_refresh=0 / rc_lookahead=50 / rc=2pass / mbtree=1 / bitrate=1924 / ratetol=1.0 / qcomp=0.60 / qpmin=10 / qpmax=51 / qpstep=4 / cplxblur=20.0 / qblur=0.5 / ip_ratio=1.40 / aq=1:1.00
Default : Yes
Forced : No
Audio #1
ID : 2
Format : AC-3
Format/Info : Audio Coding 3
Format settings, Endianness : Big
Codec ID : A_AC3
Duration : 2 h 6 min
Bit rate mode : Constant
Bit rate : 448 kb/s
Channel(s) : 6 channels
Channel positions : Front: L C R, Side: L R, LFE
Sampling rate : 48.0 kHz
Frame rate : 31.250 FPS (1536 SPF)
Bit depth : 16 bits
Compression mode : Lossy
Stream size : 405 MiB (12%)
Title : AC3 5.1, 448 kbps (Дублированный)
Language : Russian
Service kind : Complete Main
Default : Yes
Forced : No
Audio #2
ID : 3
Format : AC-3
Format/Info : Audio Coding 3
Format settings, Endianness : Big
Codec ID : A_AC3
Duration : 2 h 6 min
Bit rate mode : Constant
Bit rate : 384 kb/s
Channel(s) : 6 channels
Channel positions : Front: L C R, Side: L R, LFE
Sampling rate : 48.0 kHz
Frame rate : 31.250 FPS (1536 SPF)
Bit depth : 16 bits
Compression mode : Lossy
Stream size : 347 MiB (10%)
Title : AC3 5.1, 384 kbps (Гаврилов)
Language : Russian
Service kind : Complete Main
Default : No
Forced : No
Audio #3
ID : 4
Format : AC-3
Format/Info : Audio Coding 3
Format settings, Endianness : Big
Codec ID : A_AC3
Duration : 2 h 6 min
Bit rate mode : Constant
Bit rate : 192 kb/s
Channel(s) : 2 channels
Channel positions : Front: L R
Sampling rate : 44.1 kHz
Frame rate : 28.711 FPS (1536 SPF)
Bit depth : 16 bits
Compression mode : Lossy
Stream size : 174 MiB (5%)
Title : AC3 2.0, 192 kbps (НТВ)
Language : Russian
Service kind : Complete Main
Default : No
Forced : No
Audio #4
ID : 5
Format : AC-3
Format/Info : Audio Coding 3
Format settings, Endianness : Big
Codec ID : A_AC3
Duration : 2 h 6 min
Bit rate mode : Constant
Bit rate : 448 kb/s
Channel(s) : 6 channels
Channel positions : Front: L C R, Side: L R, LFE
Sampling rate : 48.0 kHz
Frame rate : 31.250 FPS (1536 SPF)
Bit depth : 16 bits
Compression mode : Lossy
Stream size : 405 MiB (12%)
Title : AC3 5.1, 448 kbps (Живов)
Language : Russian
Service kind : Complete Main
Default : No
Forced : No
Audio #5
ID : 6
Format : AC-3
Format/Info : Audio Coding 3
Format settings, Endianness : Big
Codec ID : A_AC3
Duration : 2 h 6 min
Bit rate mode : Constant
Bit rate : 448 kb/s
Channel(s) : 6 channels
Channel positions : Front: L C R, Side: L R, LFE
Sampling rate : 48.0 kHz
Frame rate : 31.250 FPS (1536 SPF)
Bit depth : 16 bits
Compression mode : Lossy
Stream size : 405 MiB (12%)
Title : AC3 5.1, 448 kbps (Оригинал)
Language : English
Service kind : Complete Main
Default : No
Forced : No
Text #1
ID : 7
Format : UTF-8
Codec ID : S_TEXT/UTF8
Codec ID/Info : UTF-8 Plain Text
Language : Russian
Default : No
Forced : No
Text #2
ID : 8
Format : UTF-8
Codec ID : S_TEXT/UTF8
Codec ID/Info : UTF-8 Plain Text
Language : English
Default : Yes
Forced : No

-- Год выпуска: 1995
Страна: США, Великобритания
Жанр: Фэнтези, боевик
Продолжительность: 02:01:35
Перевод: Профессиональный дублирование--Режиссер: Джоэл Шумахер--В ролях: Вэл Килмер, Томми Ли Джонс, Джим Керри, Николь Кидман, Крис О’Доннелл, Майкл Гоф, Пэт Хингл, Дрю Бэрримор, Деби Мейзар, Элизабет Сэндерс-- Бэтмен продолжает войну со злом. На этот раз ему предстоит биться с двумя объединенными злодеями: бывшим окружным прокурором пострадавшим от кислоты Двуликим и сумасшедшим гением Загадочником. А помогать ему станет юный акробат по имени Робин.-- Качество: HDRip-AVC
Формат видео: MKV
Видео кодек: H.264, 1024x576, 23.976 fps, 2027 kb/s
Аудио кодек: AC3, 48.0 kHz, 6 channels, 384 kb/s | Профессиональный (Дублированный)
Аудио кодек 2: AC3, 48.0 kHz, 2 channels, 192 kb/s | Авторский одноголосый (Горчаков, с VHS)
Аудио кодек 3: AC3, 48.0 kHz, 6 channels, 384 kb/s | Авторский одноголосый (Гаврилов)
Аудио кодек 4: AC3, 48.0 kHz, 2 channels, 128 kb/s | Авторский одноголосый (Визгунов, с VHS)
Аудио кодек 5: AC3, 48.0 kHz, 6 channels, 448 kb/s | (Оригинал) [eng]
Субтитры: Русские, Английские--

Рейтинг фильма --
General
Unique ID : 252742387775066749789630526450314186204 (0xBE2469CCED669146AA8BC1971FCB0DDC)
Complete name : F:\Kino\Фантастические и комикси\Бэтмен Коллекция\1995. Бэтмен навсегда..mkv
Format : Matroska
Format version : Version 1
File size : 3.03 GiB
Duration : 2 h 1 min
Overall bit rate : 3 566 kb/s
Encoded date : UTC 2012-06-30 19:23:06
Writing application : mkvmerge v2.3.0 ('Freak U') built on Sep 8 2008 18:32:16
Writing library : libebml v0.7.7 + libmatroska v0.8.1
Video
ID : 1
Format : AVC
Format/Info : Advanced Video Codec
Format profile : High@L3.1
Format settings, CABAC : Yes
Format settings, RefFrames : 8 frames
Codec ID : V_MPEG4/ISO/AVC
Duration : 2 h 1 min
Bit rate : 2 027 kb/s
Width : 1 024 pixels
Height : 576 pixels
Display aspect ratio : 16:9
Frame rate mode : Constant
Frame rate : 23.976 (24000/1001) FPS
Color space : YUV
Chroma subsampling : 4:2:0
Bit depth : 8 bits
Scan type : Progressive
Bits/(Pixel*Frame) : 0.143
Stream size : 1.66 GiB (55%)
Writing library : x264 core 92 r1510 33d382a
Encoding settings : cabac=1 / ref=8 / deblock=1:-1:-1 / analyse=0x3:0x133 / me=tesa / subme=10 / psy=1 / psy_rd=1.00:0.10 / mixed_ref=1 / me_range=16 / chroma_me=1 / trellis=2 / 8x8dct=1 / cqm=0 / deadzone=21,11 / fast_pskip=0 / chroma_qp_offset=-3 / threads=6 / sliced_threads=0 / nr=0 / decimate=1 / interlaced=0 / constrained_intra=0 / bframes=3 / b_pyramid=2 / b_adapt=2 / b_bias=0 / direct=3 / wpredb=1 / wpredp=2 / keyint=250 / keyint_min=25 / scenecut=40 / intra_refresh=0 / rc_lookahead=50 / rc=2pass / mbtree=1 / bitrate=2027 / ratetol=1.0 / qcomp=0.60 / qpmin=10 / qpmax=51 / qpstep=4 / cplxblur=20.0 / qblur=0.5 / ip_ratio=1.40 / aq=1:1.00
Default : Yes
Forced : No
Audio #1
ID : 2
Format : AC-3
Format/Info : Audio Coding 3
Format settings, Endianness : Big
Codec ID : A_AC3
Duration : 2 h 1 min
Bit rate mode : Constant
Bit rate : 384 kb/s
Channel(s) : 6 channels
Channel positions : Front: L C R, Side: L R, LFE
Sampling rate : 48.0 kHz
Frame rate : 31.250 FPS (1536 SPF)
Bit depth : 16 bits
Compression mode : Lossy
Delay relative to video : 52 ms
Stream size : 334 MiB (11%)
Title : AC3 5.1, 384 kbps (Дублированный)
Language : Russian
Service kind : Complete Main
Default : Yes
Forced : No
Audio #2
ID : 3
Format : AC-3
Format/Info : Audio Coding 3
Format settings, Endianness : Big
Codec ID : A_AC3
Duration : 2 h 1 min
Bit rate mode : Constant
Bit rate : 192 kb/s
Channel(s) : 2 channels
Channel positions : Front: L R
Sampling rate : 48.0 kHz
Frame rate : 31.250 FPS (1536 SPF)
Bit depth : 16 bits
Compression mode : Lossy
Stream size : 167 MiB (5%)
Title : AC3 2.0, 128 kbps (Горчаков, с VHS)
Language : Russian
Service kind : Complete Main
Default : No
Forced : No
Audio #3
ID : 4
Format : AC-3
Format/Info : Audio Coding 3
Format settings, Endianness : Big
Codec ID : A_AC3
Duration : 2 h 1 min
Bit rate mode : Constant
Bit rate : 384 kb/s
Channel(s) : 6 channels
Channel positions : Front: L C R, Side: L R, LFE
Sampling rate : 48.0 kHz
Frame rate : 31.250 FPS (1536 SPF)
Bit depth : 16 bits
Compression mode : Lossy
Stream size : 334 MiB (11%)
Title : AC3 5.1, 384 kbps (Гаврилов)
Service kind : Complete Main
Default : No
Forced : No
Audio #4
ID : 5
Format : AC-3
Format/Info : Audio Coding 3
Format settings, Endianness : Big
Codec ID : A_AC3
Duration : 2 h 1 min
Bit rate mode : Constant
Bit rate : 128 kb/s
Channel(s) : 2 channels
Channel positions : Front: L R
Sampling rate : 44.1 kHz
Frame rate : 28.711 FPS (1536 SPF)
Bit depth : 16 bits
Compression mode : Lossy
Stream size : 111 MiB (4%)
Title : AC3 5.1, 640 kbps (Визгунов, с VHS)
Service kind : Complete Main
Default : No
Forced : No
Audio #5
ID : 6
Format : AC-3
Format/Info : Audio Coding 3
Format settings, Endianness : Big
Codec ID : A_AC3
Duration : 2 h 1 min
Bit rate mode : Constant
Bit rate : 448 kb/s
Channel(s) : 6 channels
Channel positions : Front: L C R, Side: L R, LFE
Sampling rate : 48.0 kHz
Frame rate : 31.250 FPS (1536 SPF)
Bit depth : 16 bits
Compression mode : Lossy
Stream size : 390 MiB (13%)
Title : AC3 5.1, 448 kbps (Оригинал)
Language : English
Service kind : Complete Main
Default : No
Forced : No
Text #1
ID : 7
Format : UTF-8
Codec ID : S_TEXT/UTF8
Codec ID/Info : UTF-8 Plain Text
Language : Russian
Default : No
Forced : No
Text #2
ID : 8
Format : UTF-8
Codec ID : S_TEXT/UTF8
Codec ID/Info : UTF-8 Plain Text
Language : English
Default : Yes
Forced : No

-- Год выпуска: 1997
Страна: США, Великобритания
Жанр: Фантастика, фэнтези, боевик
Продолжительность: 02:04:54
Перевод: Профессиональный дублирование--Режиссер: Джоэл Шумахер--В ролях: Арнольд Шварценеггер, Джордж Клуни, Крис О’Доннелл, Ума Турман, Алисия Сильверстоун, Майкл Гоф, Пэт Хингл, Джон Гловер, Эль Макферсон, Вивика А. Фокс-- Над Готэмом вновь нависла угроза: злодей-морозилка Мистер Фриз и психованная любительница растений по кличке Ядовитый Плющ решают уничтожить город. Единственные, кто могут остановить злодеев — Бэтмен и Робин, однако у этих супергероев возникают разногласия…-- Качество: HDRip-AVC
Формат видео: MKV
Видео кодек: H.264, 1024x576, 23.976 fps, 1963 kb/s
Аудио кодек: AC3, 48.0 kHz, 6 channels, 384 kb/s | Профессиональный (Дублированный)
Аудио кодек 2: AC3, 48.0 kHz, 6 channels, 448 kb/s | (Оригинал) [eng]
Аудио кодек 3: AC3, 48.0 kHz, 2channels, 192 kb | MVO, Россия
Аудио кодек 4: AC3, 48.0 kHz, 2 channels, 192 kb | Авторский одноголосый (Визнунов, с VHS)
Аудио кодек 5: AC3, 48.0 kHz, 6 channels, 384 kb | Авторский одноголосый (Гаврилов)
Субтитры: Русские, Английские
--

Рейтинг фильма --
General
Unique ID : 208879325920610594077744676677088386617 (0x9D24B1E20B022EBC9CBDD07A94B31E39)
Complete name : F:\Kino\Фантастические и комикси\Бэтмен Коллекция\1997. Бэтмен и Робин..mkv
Format : Matroska
Format version : Version 1
File size : 3.11 GiB
Duration : 2 h 4 min
Overall bit rate : 3 565 kb/s
Movie name : Batman & Robin (1997)
Encoded date : UTC 2012-06-30 15:14:20
Writing application : mkvmerge v2.3.0 ('Freak U') built on Sep 8 2008 18:32:16
Writing library : libebml v0.7.7 + libmatroska v0.8.1
Attachments : CronosPro-Bold.ttf / CronosPro-Semibold.ttf / CronosPro-SemiboldIt.ttf
Video
ID : 1
Format : AVC
Format/Info : Advanced Video Codec
Format profile : High@L3.1
Format settings, CABAC : Yes
Format settings, RefFrames : 8 frames
Codec ID : V_MPEG4/ISO/AVC
Duration : 2 h 4 min
Bit rate : 1 963 kb/s
Width : 1 024 pixels
Height : 576 pixels
Display aspect ratio : 16:9
Frame rate mode : Constant
Frame rate : 23.976 (24000/1001) FPS
Color space : YUV
Chroma subsampling : 4:2:0
Bit depth : 8 bits
Scan type : Progressive
Bits/(Pixel*Frame) : 0.139
Stream size : 1.65 GiB (53%)
Writing library : x264 core 92 r1510 33d382a
Encoding settings : cabac=1 / ref=8 / deblock=1:-1:-1 / analyse=0x3:0x133 / me=tesa / subme=10 / psy=1 / psy_rd=1.00:0.10 / mixed_ref=1 / me_range=16 / chroma_me=1 / trellis=2 / 8x8dct=1 / cqm=0 / deadzone=21,11 / fast_pskip=0 / chroma_qp_offset=-3 / threads=6 / sliced_threads=0 / nr=0 / decimate=1 / interlaced=0 / constrained_intra=0 / bframes=3 / b_pyramid=2 / b_adapt=2 / b_bias=0 / direct=3 / wpredb=1 / wpredp=2 / keyint=250 / keyint_min=25 / scenecut=40 / intra_refresh=0 / rc_lookahead=50 / rc=2pass / mbtree=1 / bitrate=1963 / ratetol=1.0 / qcomp=0.60 / qpmin=10 / qpmax=51 / qpstep=4 / cplxblur=20.0 / qblur=0.5 / ip_ratio=1.40 / aq=1:1.00
Default : Yes
Forced : No
Audio #1
ID : 2
Format : AC-3
Format/Info : Audio Coding 3
Format settings, Endianness : Big
Codec ID : A_AC3
Duration : 2 h 4 min
Bit rate mode : Constant
Bit rate : 384 kb/s
Channel(s) : 6 channels
Channel positions : Front: L C R, Side: L R, LFE
Sampling rate : 48.0 kHz
Frame rate : 31.250 FPS (1536 SPF)
Bit depth : 16 bits
Compression mode : Lossy
Delay relative to video : 1 s 849 ms
Stream size : 343 MiB (11%)
Title : AC3 5.1, 384 kbps (Дублированный)
Language : Russian
Service kind : Complete Main
Default : Yes
Forced : No
Audio #2
ID : 3
Format : AC-3
Format/Info : Audio Coding 3
Format settings, Endianness : Big
Codec ID : A_AC3
Duration : 2 h 4 min
Bit rate mode : Constant
Bit rate : 448 kb/s
Channel(s) : 6 channels
Channel positions : Front: L C R, Side: L R, LFE
Sampling rate : 48.0 kHz
Frame rate : 31.250 FPS (1536 SPF)
Bit depth : 16 bits
Compression mode : Lossy
Stream size : 400 MiB (13%)
Title : AC3 5.1, 448 kbps (Оригинал)
Language : English
Service kind : Complete Main
Default : No
Forced : No
Audio #3
ID : 4
Format : AC-3
Format/Info : Audio Coding 3
Format settings, Endianness : Big
Codec ID : A_AC3
Duration : 2 h 4 min
Bit rate mode : Constant
Bit rate : 192 kb/s
Channel(s) : 2 channels
Channel positions : Front: L R
Sampling rate : 48.0 kHz
Frame rate : 31.250 FPS (1536 SPF)
Bit depth : 16 bits
Compression mode : Lossy
Stream size : 172 MiB (5%)
Title : AC3 2.0, 192 kbps (MVO, Россия)
Language : Russian
Service kind : Complete Main
Default : No
Forced : No
Audio #4
ID : 5
Format : AC-3
Format/Info : Audio Coding 3
Format settings, Endianness : Big
Codec ID : A_AC3
Duration : 2 h 4 min
Bit rate mode : Constant
Bit rate : 192 kb/s
Channel(s) : 2 channels
Channel positions : Front: L R
Sampling rate : 48.0 kHz
Frame rate : 31.250 FPS (1536 SPF)
Bit depth : 16 bits
Compression mode : Lossy
Stream size : 172 MiB (5%)
Title : AC3 2.0, 192 kbps (Визгунов, с VHS)
Language : Russian
Service kind : Complete Main
Default : No
Forced : No
Audio #5
ID : 6
Format : AC-3
Format/Info : Audio Coding 3
Format settings, Endianness : Big
Codec ID : A_AC3
Duration : 2 h 4 min
Bit rate mode : Constant
Bit rate : 384 kb/s
Channel(s) : 6 channels
Channel positions : Front: L C R, Side: L R, LFE
Sampling rate : 48.0 kHz
Frame rate : 31.250 FPS (1536 SPF)
Bit depth : 16 bits
Compression mode : Lossy
Stream size : 343 MiB (11%)
Title : AC3 5.1, 384 kbps (Гаврилов)
Language : Russian
Service kind : Complete Main
Default : No
Forced : No
Text #1
ID : 7
Format : UTF-8
Codec ID : S_TEXT/UTF8
Codec ID/Info : UTF-8 Plain Text
Language : Russian
Default : Yes
Forced : No
Text #2
ID : 8
Format : ASS
Codec ID : S_TEXT/ASS
Codec ID/Info : Advanced Sub Station Alpha
Compression mode : Lossless
Language : English
Default : No
Forced : No

-- Год выпуска: 2005
Страна: США, Великобритания
Жанр: Боевик, приключения, фантастика, драма
Продолжительность: 02:20:03
Перевод: Профессиональный дублирование--Режиссер: Кристофер Нолан--В ролях: Кристиан Бэйл, Лиам Нисон, Кэти Холмс, Гари Олдман, Майкл Кейн, Киллиан Мёрфи, Том Уилкинсон, Кен Ватанабе, Морган Фриман, Рутгер Хауэр-- История о происхождении легенды Брюса Уэйна, юного наследника огромного состояния, потерявшего своих родителей. Покинув родной Готэм, он отправляется в путешествие по миру. Многочисленные преграды и лишения закаляют его характер, а мудрый наставник помогает вновь обрести смысл жизни.
Легендарный герой, защитник слабых и борец с несправедливостью преображается у тебя на глазах. Вернувшись в Готэм, Бэтмен становится единственной преградой на пути у сил зла, готовых ввергнуть город во мрак беззакония…-- Качество: HDRip-AVC
Формат видео: MKV
Видео кодек: H.264, 1024x424, 23.976 fps, 1651 kb/s
Аудио кодек: AC3, 48.0 kHz, 6 channels, 448 kb/s | Профессиональный (Дублированный)
Аудио кодек 2: AC3, 48.0 kHz, 6 channels, 448 kb/s | Многоголосый закадровый
Аудио кодек 3: AC3, 48.0 kHz, 6 channels, 384 kb/s | Одноголосый закадровый (Королев)
Аудио кодек 4: AC3, 48.0 kHz, 6 channels, 384 kb/s | Одноголосый закадровый (Гаврилов)
Аудио кодек 5: AC3, 48.0 kHz, 6 channels, 448 kb/s | (Оригинал) [eng]
Субтитры: Русские
--

Рейтинг фильма --
General
Unique ID : 216430885111900609488812546507514020353 (0xA2D3127F278FE75FB1A911D9E51B8201)
Complete name : F:\Kino\Фантастические и комикси\Бэтмен Коллекция\2005. Бэтмен Начало..mkv
Format : Matroska
Format version : Version 1
File size : 3.68 GiB
Duration : 2 h 20 min
Overall bit rate : 3 766 kb/s
Movie name : Batman Begins (2005) - Release for HDClub
Encoded date : UTC 2012-07-03 19:10:55
Writing application : mkvmerge v2.3.0 ('Freak U') built on Sep 8 2008 18:32:16
Writing library : libebml v0.7.7 + libmatroska v0.8.1
Video
ID : 1
Format : AVC
Format/Info : Advanced Video Codec
Format profile : High@L3.1
Format settings, CABAC : Yes
Format settings, RefFrames : 8 frames
Codec ID : V_MPEG4/ISO/AVC
Duration : 2 h 20 min
Bit rate : 1 651 kb/s
Width : 1 024 pixels
Height : 424 pixels
Display aspect ratio : 2.40:1
Frame rate mode : Constant
Frame rate : 23.976 (24000/1001) FPS
Color space : YUV
Chroma subsampling : 4:2:0
Bit depth : 8 bits
Scan type : Progressive
Bits/(Pixel*Frame) : 0.159
Stream size : 1.55 GiB (42%)
Writing library : x264 core 92 r1510 33d382a
Encoding settings : cabac=1 / ref=8 / deblock=1:-1:-1 / analyse=0x3:0x133 / me=tesa / subme=10 / psy=1 / psy_rd=1.00:0.10 / mixed_ref=1 / me_range=16 / chroma_me=1 / trellis=2 / 8x8dct=1 / cqm=0 / deadzone=21,11 / fast_pskip=0 / chroma_qp_offset=-3 / threads=6 / sliced_threads=0 / nr=0 / decimate=1 / interlaced=0 / constrained_intra=0 / bframes=3 / b_pyramid=2 / b_adapt=2 / b_bias=0 / direct=3 / wpredb=1 / wpredp=2 / keyint=250 / keyint_min=25 / scenecut=40 / intra_refresh=0 / rc_lookahead=50 / rc=2pass / mbtree=1 / bitrate=1651 / ratetol=1.0 / qcomp=0.60 / qpmin=10 / qpmax=51 / qpstep=4 / cplxblur=20.0 / qblur=0.5 / ip_ratio=1.40 / aq=1:1.00
Default : Yes
Forced : No
Audio #1
ID : 2
Format : AC-3
Format/Info : Audio Coding 3
Format settings, Endianness : Big
Codec ID : A_AC3
Duration : 2 h 20 min
Bit rate mode : Constant
Bit rate : 448 kb/s
Channel(s) : 6 channels
Channel positions : Front: L C R, Side: L R, LFE
Sampling rate : 48.0 kHz
Frame rate : 31.250 FPS (1536 SPF)
Bit depth : 16 bits
Compression mode : Lossy
Stream size : 449 MiB (12%)
Title : AC3 5.1, 448 kbps (Дублированный)
Language : Russian
Service kind : Complete Main
Default : Yes
Forced : No
Audio #2
ID : 3
Format : AC-3
Format/Info : Audio Coding 3
Format settings, Endianness : Big
Codec ID : A_AC3
Duration : 2 h 20 min
Bit rate mode : Constant
Bit rate : 448 kb/s
Channel(s) : 6 channels
Channel positions : Front: L C R, Side: L R, LFE
Sampling rate : 48.0 kHz
Frame rate : 31.250 FPS (1536 SPF)
Bit depth : 16 bits
Compression mode : Lossy
Stream size : 449 MiB (12%)
Title : AC3 5.1, 448 kbps (Королев)
Language : Russian
Service kind : Complete Main
Default : No
Forced : No
Audio #3
ID : 4
Format : AC-3
Format/Info : Audio Coding 3
Format settings, Endianness : Big
Codec ID : A_AC3
Duration : 2 h 20 min
Bit rate mode : Constant
Bit rate : 384 kb/s
Channel(s) : 6 channels
Channel positions : Front: L C R, Side: L R, LFE
Sampling rate : 48.0 kHz
Frame rate : 31.250 FPS (1536 SPF)
Bit depth : 16 bits
Compression mode : Lossy
Stream size : 385 MiB (10%)
Title : AC3 5.1 384k (Многоголосый)
Language : Russian
Service kind : Complete Main
Default : No
Forced : No
Audio #4
ID : 5
Format : AC-3
Format/Info : Audio Coding 3
Format settings, Endianness : Big
Codec ID : A_AC3
Duration : 2 h 20 min
Bit rate mode : Constant
Bit rate : 384 kb/s
Channel(s) : 6 channels
Channel positions : Front: L C R, Side: L R, LFE
Sampling rate : 48.0 kHz
Frame rate : 31.250 FPS (1536 SPF)
Bit depth : 16 bits
Compression mode : Lossy
Stream size : 385 MiB (10%)
Title : AC3 5.1, 384 kbps (Гаврилов)
Language : Russian
Service kind : Complete Main
Default : No
Forced : No
Audio #5
ID : 6
Format : AC-3
Format/Info : Audio Coding 3
Format settings, Endianness : Big
Codec ID : A_AC3
Duration : 2 h 20 min
Bit rate mode : Constant
Bit rate : 448 kb/s
Channel(s) : 6 channels
Channel positions : Front: L C R, Side: L R, LFE
Sampling rate : 48.0 kHz
Frame rate : 31.250 FPS (1536 SPF)
Bit depth : 16 bits
Compression mode : Lossy
Stream size : 449 MiB (12%)
Title : AC3 5.1, 448 kbps (Оригинал)
Language : English
Service kind : Complete Main
Default : No
Forced : No
Text #1
ID : 7
Format : UTF-8
Codec ID : S_TEXT/UTF8
Codec ID/Info : UTF-8 Plain Text
Language : Russian
Default : Yes
Forced : No
Text #2
ID : 8
Format : UTF-8
Codec ID : S_TEXT/UTF8
Codec ID/Info : UTF-8 Plain Text
Language : English
Default : No
Forced : No

-- Год выпуска: 2008
Страна: США, Великобритания
Жанр: Фантастика, боевик, триллер, криминал, драма
Продолжительность: 02:32:13
Перевод: Профессиональный дублирование--Режиссер: Кристофер Нолан--В ролях: Кристиан Бэйл, Хит Леджер, Аарон Экхарт, Мэгги Джилленхол, Гари Олдман, Майкл Кейн, Морган Фриман, Чин Хань, Нестор Карбонелл, Эрик Робертс-- Бэтмен поднимает ставки в войне с криминалом. С помощью лейтенанта Джима Гордона и прокурора Харви Дента он намерен очистить улицы от преступности, отравляющей город. Сотрудничество оказывается эффективным, но скоро они обнаружат себя посреди хаоса, развязанного восходящим криминальным гением, известным испуганным горожанам под именем Джокер.-- Качество: HDRip-AVC
Формат видео: MKV
Видео кодек: H.264, 1024x576, 23.976 fps, 1987 kb/s
Аудио кодек: AC3, 48.0 kHz, 6 channels, 448 kb/s | Профессиональный (Дублированный)
Аудио кодек 2: AC3, 48.0 kHz, 6 channels, 448 kb/s | Многоголосый закадровый (ст. "Кравец")
Аудио кодек 3: AC3, 48.0 kHz, 6 channels, 448 kb/s | Одноголосый закадровый (Гаврилов)
Аудио кодек 4: AC3, 48.0 kHz, 6 channels, 448 kb/s | Одноголосый закадровый (Сербин)
Аудио кодек 5: AC3, 48.0 kHz, 6 channels, 448 kb/s | (Оригинал) [eng]
Субтитры: Русские, Английские--

Рейтинг фильма --
General
Unique ID : 234255709098222647404797465189848441405 (0xB03C022BB7F7AAEFBB1E77B2EFD7E23D)
Complete name : F:\Kino\Фантастические и комикси\Бэтмен Коллекция\2008. Бэтмен Темный рыцарь..mkv
Format : Matroska
Format version : Version 1
File size : 4.50 GiB
Duration : 2 h 32 min
Overall bit rate : 4 230 kb/s
Movie name : The Dark Knight (2008) BDRip 1080p
Encoded date : UTC 2012-07-06 09:45:20
Writing application : mkvmerge v2.3.0 ('Freak U') built on Sep 8 2008 18:32:16
Writing library : libebml v0.7.7 + libmatroska v0.8.1
Video
ID : 1
Format : AVC
Format/Info : Advanced Video Codec
Format profile : High@L3.1
Format settings, CABAC : Yes
Format settings, RefFrames : 8 frames
Codec ID : V_MPEG4/ISO/AVC
Duration : 2 h 32 min
Bit rate : 1 987 kb/s
Width : 1 024 pixels
Height : 576 pixels
Display aspect ratio : 16:9
Frame rate mode : Constant
Frame rate : 23.976 (24000/1001) FPS
Color space : YUV
Chroma subsampling : 4:2:0
Bit depth : 8 bits
Scan type : Progressive
Bits/(Pixel*Frame) : 0.141
Stream size : 2.03 GiB (45%)
Writing library : x264 core 92 r1510 33d382a
Encoding settings : cabac=1 / ref=8 / deblock=1:-1:-1 / analyse=0x3:0x133 / me=tesa / subme=10 / psy=1 / psy_rd=1.00:0.10 / mixed_ref=1 / me_range=16 / chroma_me=1 / trellis=2 / 8x8dct=1 / cqm=0 / deadzone=21,11 / fast_pskip=0 / chroma_qp_offset=-3 / threads=6 / sliced_threads=0 / nr=0 / decimate=1 / interlaced=0 / constrained_intra=0 / bframes=3 / b_pyramid=2 / b_adapt=2 / b_bias=0 / direct=3 / wpredb=1 / wpredp=2 / keyint=250 / keyint_min=25 / scenecut=40 / intra_refresh=0 / rc_lookahead=50 / rc=2pass / mbtree=1 / bitrate=1987 / ratetol=1.0 / qcomp=0.60 / qpmin=10 / qpmax=51 / qpstep=4 / cplxblur=20.0 / qblur=0.5 / ip_ratio=1.40 / aq=1:1.00
Default : Yes
Forced : No
Audio #1
ID : 2
Format : AC-3
Format/Info : Audio Coding 3
Format settings, Endianness : Big
Codec ID : A_AC3
Duration : 2 h 32 min
Bit rate mode : Constant
Bit rate : 448 kb/s
Channel(s) : 6 channels
Channel positions : Front: L C R, Side: L R, LFE
Sampling rate : 48.0 kHz
Frame rate : 31.250 FPS (1536 SPF)
Bit depth : 16 bits
Compression mode : Lossy
Stream size : 488 MiB (11%)
Title : AC3 5.1, 448 kbps (Дублированный)
Language : Russian
Service kind : Complete Main
Default : Yes
Forced : No
Audio #2
ID : 3
Format : AC-3
Format/Info : Audio Coding 3
Format settings, Endianness : Big
Codec ID : A_AC3
Duration : 2 h 32 min
Bit rate mode : Constant
Bit rate : 448 kb/s
Channel(s) : 6 channels
Channel positions : Front: L C R, Side: L R, LFE
Sampling rate : 48.0 kHz
Frame rate : 31.250 FPS (1536 SPF)
Bit depth : 16 bits
Compression mode : Lossy
Stream size : 488 MiB (11%)
Title : AC3 5.1, 448 kbps (Гаврилов)
Language : Russian
Service kind : Complete Main
Default : No
Forced : No
Audio #3
ID : 4
Format : AC-3
Format/Info : Audio Coding 3
Format settings, Endianness : Big
Codec ID : A_AC3
Duration : 2 h 32 min
Bit rate mode : Constant
Bit rate : 448 kb/s
Channel(s) : 6 channels
Channel positions : Front: L C R, Side: L R, LFE
Sampling rate : 48.0 kHz
Frame rate : 31.250 FPS (1536 SPF)
Bit depth : 16 bits
Compression mode : Lossy
Stream size : 488 MiB (11%)
Title : AC3 5.1, 448 kbps (MVO - Кравец)
Language : Russian
Service kind : Complete Main
Default : No
Forced : No
Audio #4
ID : 5
Format : AC-3
Format/Info : Audio Coding 3
Format settings, Endianness : Big
Codec ID : A_AC3
Duration : 2 h 32 min
Bit rate mode : Constant
Bit rate : 448 kb/s
Channel(s) : 6 channels
Channel positions : Front: L C R, Side: L R, LFE
Sampling rate : 48.0 kHz
Frame rate : 31.250 FPS (1536 SPF)
Bit depth : 16 bits
Compression mode : Lossy
Stream size : 488 MiB (11%)
Title : AC3 5.1 448 kbps, (Сербин)
Language : Russian
Service kind : Complete Main
Default : No
Forced : No
Audio #5
ID : 6
Format : AC-3
Format/Info : Audio Coding 3
Format settings, Endianness : Big
Codec ID : A_AC3
Duration : 2 h 32 min
Bit rate mode : Constant
Bit rate : 448 kb/s
Channel(s) : 6 channels
Channel positions : Front: L C R, Side: L R, LFE
Sampling rate : 48.0 kHz
Frame rate : 31.250 FPS (1536 SPF)
Bit depth : 16 bits
Compression mode : Lossy
Stream size : 488 MiB (11%)
Title : AC3 5.1 448 kbps, (Оригинал)
Language : English
Service kind : Complete Main
Default : No
Forced : No
Text #1
ID : 7
Format : UTF-8
Codec ID : S_TEXT/UTF8
Codec ID/Info : UTF-8 Plain Text
Title : Sub RUS (BD CEE)
Language : Russian
Default : Yes
Forced : No
Text #2
ID : 8
Format : UTF-8
Codec ID : S_TEXT/UTF8
Codec ID/Info : UTF-8 Plain Text
Title : Sub RUS (Goblin)
Language : Russian
Default : No
Forced : No
Text #3
ID : 9
Format : UTF-8
Codec ID : S_TEXT/UTF8
Codec ID/Info : UTF-8 Plain Text
Title : Sub ENG
Language : English
Default : No
Forced : No

-- Год выпуска: 2012
Страна: США, Великобритания
Жанр: Фантастика, боевик, триллер, драма, криминал
Продолжительность: 02:44:33
Перевод: Профессиональный дублирование--Режиссер: Кристофер Нолан--В ролях: Кристиан Бэйл, Том Харди, Энн Хэтэуэй, Джозеф Гордон-Левитт, Марион Котийяр, Гари Олдман, Морган Фриман, Майкл Кейн, Мэтью Модайн, Бен Мендельсон-- Восемь лет назад Бэтмен растворился в ночи, превратившись из героя в беглеца. Приняв на себя вину за смерть прокурора Харви Дента, Темный рыцарь пожертвовал всем. Вместе с комиссаром Гордоном они решили, что так будет лучше для всех. Пока преступность была раздавлена антикриминальным актом Дента, ложь действовала.
Но с появлением хитрой воровки с загадочным прошлым всё меняется. Тем не менее, еще опаснее становится появление террориста Бэйна, чье лицо закрыто маской. Он разворачивает в Готэме чудовищную деятельность, вынуждая Брюса Уэйна выйти из импровизированного изгнания. Однако даже надев свой костюм, Бэтмен может проиграть Бэйну.-- Качество: HDRip-AVC
Формат видео: MKV
Видео кодек: H.264, 1072x608, 23.976 fps, 2100 kb/s
Аудио кодек: AC3, 48.0 kHz, 6 channels, 384 kb/s | Профессиональный (Дублированный)
Аудио кодек: AC3, 48.0 kHz, 6 channels, 448 kb/s | (Оригинал) [eng]--

Рейтинг фильма --
General
Unique ID : 220291619105263473779967084604167259272 (0xA5BA9F60F5AE1835BD55623BDD0F8488)
Complete name : F:\Kino\Фантастические и комикси\Бэтмен Коллекция\2012. Бэтмен Темный рыцарь Возрождение легенды..mkv
Format : Matroska
Format version : Version 1
File size : 3.37 GiB
Duration : 2 h 44 min
Overall bit rate : 2 935 kb/s
Encoded date : UTC 2012-11-23 08:00:28 / UTC 2012-11-18 11:37:07
Writing application : mkvmerge v2.3.0 ('Freak U') built on Sep 8 2008 18:32:16
Writing library : libebml v0.7.7 + libmatroska v0.8.1 / XviD4PSP 6.0 / 54.29.105
Video
ID : 1
Format : AVC
Format/Info : Advanced Video Codec
Format profile : High@L3.1
Format settings, CABAC : Yes
Format settings, RefFrames : 3 frames
Codec ID : V_MPEG4/ISO/AVC
Duration : 2 h 44 min
Bit rate : 2 100 kb/s
Width : 1 072 pixels
Height : 608 pixels
Display aspect ratio : 16:9
Original display aspect ratio : 16:9
Frame rate mode : Constant
Frame rate : 23.976 (24000/1001) FPS
Color space : YUV
Chroma subsampling : 4:2:0
Bit depth : 8 bits
Scan type : Progressive
Bits/(Pixel*Frame) : 0.134
Stream size : 2.35 GiB (70%)
Writing library : x264 core 128 r2216M 198a7ea
Encoding settings : cabac=1 / ref=3 / deblock=1:-1:-1 / analyse=0x3:0x133 / me=hex / subme=7 / psy=1 / psy_rd=1.00:0.15 / mixed_ref=1 / me_range=16 / chroma_me=1 / trellis=1 / 8x8dct=1 / cqm=0 / deadzone=6,6 / fast_pskip=1 / chroma_qp_offset=-3 / threads=12 / lookahead_threads=2 / sliced_threads=0 / nr=10 / decimate=0 / interlaced=0 / bluray_compat=0 / constrained_intra=0 / bframes=3 / b_pyramid=1 / b_adapt=2 / b_bias=0 / direct=3 / weightb=1 / open_gop=0 / weightp=2 / keyint=230 / keyint_min=23 / scenecut=40 / intra_refresh=0 / rc_lookahead=40 / rc=2pass / mbtree=1 / bitrate=2100 / ratetol=1.0 / qcomp=0.80 / qpmin=10 / qpmax=51 / qpstep=4 / cplxblur=20.0 / qblur=0.5 / ip_ratio=1.10 / aq=2:0.50
Language : English
Default : Yes
Forced : No
Audio #1
ID : 2
Format : AC-3
Format/Info : Audio Coding 3
Format settings, Endianness : Big
Codec ID : A_AC3
Duration : 2 h 44 min
Bit rate mode : Constant
Bit rate : 384 kb/s
Channel(s) : 6 channels
Channel positions : Front: L C R, Side: L R, LFE
Sampling rate : 48.0 kHz
Frame rate : 31.250 FPS (1536 SPF)
Bit depth : 16 bits
Compression mode : Lossy
Stream size : 452 MiB (13%)
Title : DUB R5
Language : Russian
Service kind : Complete Main
Default : Yes
Forced : No
Audio #2
ID : 3
Format : AC-3
Format/Info : Audio Coding 3
Format settings, Endianness : Big
Codec ID : A_AC3
Duration : 2 h 44 min
Bit rate mode : Constant
Bit rate : 448 kb/s
Channel(s) : 6 channels
Channel positions : Front: L C R, Side: L R, LFE
Sampling rate : 48.0 kHz
Frame rate : 31.250 FPS (1536 SPF)
Bit depth : 16 bits
Compression mode : Lossy
Stream size : 527 MiB (15%)
Title : ENG
Language : English
Service kind : Complete Main
Default : No
Forced : No
Menu
00:00:00.000 : en:00:00:00.000
00:09:02.834 : en:00:09:02.834
00:19:08.522 : en:00:19:08.522
00:30:15.856 : en:00:30:15.856
00:41:08.800 : en:00:41:08.800
00:51:09.525 : en:00:51:09.525
01:00:29.668 : en:01:00:29.668
01:10:04.033 : en:01:10:04.033
01:20:13.475 : en:01:20:13.475
01:31:00.580 : en:01:31:00.580
01:39:24.292 : en:01:39:24.292
01:48:58.490 : en:01:48:58.490
02:00:21.589 : en:02:00:21.589
02:10:47.673 : en:02:10:47.673
02:19:12.636 : en:02:19:12.636
02:30:14.631 : en:02:30:14.631
02:36:50.526 : en:02:36:50.526

Release was prepared by RG Cinema

[toptorrent.pw].t5771.torrent
 GOLD TORRENT! DOWNLOAD TRAFFIC DOES NOT CONSIDER! 
Вечный
Torrent: Registered [ 2019-04-14 16:51 ] · DAA486C008FC0AF1BC360CF770843E6D00D5A846

Download .torrent

Download

60 KB

Status: checked
Completed: 0 times
Size: 23.7 GB
Rate: 
(Vote: 1)
Has thanked: 1  Thanks   (List)
terms.php
Display posts:    
Reply to topic

Current time is: 26-Apr 00:43

All times are UTC + 5



You cannot post new topics in this forum
You cannot reply to topics in this forum
You cannot edit your posts in this forum
You cannot delete your posts in this forum
You cannot vote in polls in this forum
You cannot attach files in this forum
You can download files in this forum