Стекло / Glass (М. Найт Шьямалан / M. Night Shyamalan) [2019, Фантастика, триллер, драма, BDRip] DUB [iTunes]

Reply to topic
 
Author Message

_Deimos_ ®

VIP пользователь

Gender: Male

Longevity: 1 year 5 months

Posts: 372

Карма: 33000 [+]

Наличие запрета:

[Profile] [PM]

Post 16-Apr-2019 15:37

[Quote]

Стекло / Glass- --Год выпуска: 2019
Страна: США
Жанр: Фантастика, триллер, драма
Продолжительность: 02:09:02
Перевод: Дублированный [iTunes]--Режиссёр: М. Найт Шьямалан--В ролях: Аня Тейлор-Джой, Джеймс МакЭвой, Сара Полсон, Брюс Уиллис, Сэмюэл Л. Джексон, Спенсер Трит Кларк, Люк Кирби, Джейн Парк Смит, Кайли Зион, Нина Уиснер-- : В поисках встречи с обладающим фантастическими способностями Зверем, Дэвид Данн выходит на след Кевина Крамба. Однако в дело вмешивается Элайджа Прайс, который тщательно хранит секреты Данна и Крамба.-- Качество: BDRip
Формат видео: AVI
Видео: Xvid, 704x384, 23.976 fps, 1226 kb/s
Аудио: AC3, 48.0 kHz, 6 channels, 384 kb/s--

Рейтинг фильма --
General
Unique ID : 189119066560566806152569002380938817046 (0x8E4701E0AA1276A39C77C9C4DD55AE16)
Complete name : G:\Kino\Glass.2019.BDRip..avi
Format : Matroska
Format version : Version 4 / Version 2
File size : 1.45 GiB
Duration : 2 h 9 min
Overall bit rate : 1 611 kb/s
Movie name : Glass (2019) #TorpedoUK#
Encoded date : UTC 2019-04-16 02:29:56
Writing application : mkvmerge v9.7.1 ('Pandemonium') 32bit
Writing library : libebml v1.3.4 + libmatroska v1.4.5
FileExtension_Invalid : mkv mk3d mka mks
Video
ID : 1
Format : MPEG-4 Visual
Format profile : Advanced Simple@L5
Format settings, BVOP : 1
Format settings, QPel : No
Format settings, GMC : No warppoints
Format settings, Matrix : Custom
Codec ID : V_MS/VFW/FOURCC / XVID
Codec ID/Hint : XviD
Duration : 2 h 9 min
Bit rate : 1 226 kb/s
Width : 720 pixels
Height : 304 pixels
Display aspect ratio : 2.35:1
Frame rate mode : Constant
Frame rate : 23.976 (23976/1000) FPS
Color space : YUV
Chroma subsampling : 4:2:0
Bit depth : 8 bits
Scan type : Progressive
Compression mode : Lossy
Bits/(Pixel*Frame) : 0.234
Stream size : 1.10 GiB (76%)
Writing library : XviD 67
Default : Yes
Forced : No
Audio
ID : 2
Format : AC-3
Format/Info : Audio Coding 3
Format settings, Endianness : Big
Codec ID : A_AC3
Duration : 2 h 9 min
Bit rate mode : Constant
Bit rate : 384 kb/s
Channel(s) : 6 channels
Channel positions : Front: L C R, Side: L R, LFE
Sampling rate : 48.0 kHz
Frame rate : 31.250 FPS (1536 SPF)
Bit depth : 16 bits
Compression mode : Lossy
Stream size : 355 MiB (24%)
Title : DUB [iTunes]
Language : Russian
Service kind : Complete Main
Default : Yes
Forced : No

Release was prepared by RG Cinema

Display posts:    
Reply to topic

Current time is: 20-Jul 05:47

All times are UTC + 5



You cannot post new topics in this forum
You cannot reply to topics in this forum
You cannot edit your posts in this forum
You cannot delete your posts in this forum
You cannot vote in polls in this forum
You cannot attach files in this forum
You cannot download files in this forum