В пустыне смерти / Into the Badlands / Сезон 1 Полный / Серии 1-6 из 6 (Пако Кабесас, Тоа Фрейзер, Дэвид Добкин) [2015 г., Боевик, Драма, Приключения, BDRip 1080p, HEVC, 10bit] MVO (NewStudio, AMC, LostFilm) + Original Eng

Reply to topic
DL-List and Torrent activity
Size:  19.17 GB   |    Registered:  2 months 24 days   |    Completed:  0 times

Seeder not seen: 2 months 15 days

 
 
 
 
Author Message

.:Mercury:. ®

Gender: Male

Longevity: 1 year 5 months

Posts: 3405

Карма: 31947 [+]

Наличие запрета:

[Profile] [PM]

Post 25-Apr-2019 14:08

[Quote]

В пустыне смерти / Into the Badlands- -Год выпуска: 2015
Страна: США
Жанр: Боевик, Драма, Приключения
Продолжительность: 6x 04:15:57
Перевод: Профессиональный (многоголосый, закадровый) NewStudio, AMC, LostFilm--Режиссер: Пако Кабесас, Тоа Фрейзер, Дэвид Добкин--В ролях: Дэниэл Ву, Орла Брэйди, Эмили Бичем, Арамис Найт, Элли Иоаннидес, Ник Фрост, Шерман Огастас, Сара Болгер, Оливер Старк, Мадлен Манток--Описание: Далёкое будущее, в котором общество вернулось к феодальному строю. Прежняя цивилизация оказалась полностью разрушена, и теперь всем заправляют семь баронов, конкурирующих между собой хозяев так называемой Пустыни смерти. Каждый из них обладает собственной армией безжалостных убийц, именуемых кромсателями, которые нужны для усмирения народа и поддержания авторитета того или иного правителя. Самым профессиональным и ловким из наемников является Санни; правая рука барона Куинна, на протяжении многих десятилетий считающегося самым авторитетным властителем своих территорий. В последнее время Куинн слегка сдал: его мучает неизвестный недуг, и этим хочет воспользоваться хитрая Вдова, барон-новичок с большими амбициями. Тем временем Санни спасает из случайной кровавой передряги мальчика по имени Эм Кей и берет его под свое покровительство. Вскоре лучший во всей Пустыне кромсатель понимает, что спасенный подросток хранит некую страшную тайну, из-за которой на него ведется охота. Вместе Санни и Эм Кей вынуждены отправиться в опасное путешествие, которое может привести всех обитателей Пустыни смерти к кардинальным переменам...
--
S01E001. Chapter I- The Fort
S01E002. Chapter II- Fist Like a Bullet
S01E003. Chapter III- White Stork Spreads Wings
S01E004. Chapter IV- Two Tigers Subdue Dragons
S01E005. Chapter V- Snake Creeps Down
S01E006. Chapter VI- Hand of Five Poisons
--Качество: BDRip 1080p HEVC 10bit
Формат: MKV
Видео кодек: H.265
Аудио кодек: AC3
Видео: HVC1 1920x1080 23.976fps 7 101 kb/s
Аудио#1: Dolby AC3 48000Hz 6ch 448kbps | (NewStudio, присутствует аудиореклама)
Аудио#2: Dolby AC3 48000Hz stereo 192kbps 2ch | (AMC)
Аудио#3: Dolby AC3 48000Hz stereo 384kbps 2ch | (LostFilm)
Аудио#4: Dolby AC3 48000Hz 6ch 640kbps | Английский, Оригинал
General
Unique ID : 313971822590124409247138479732237612025 (0xEC34C602EAD9A419D7F36A2C8BB933F9)
Complete name : D:\В пустыне смерти S01\S01E003. Chapter III- White Stork Spreads Wings.mkv
Format : Matroska
Format version : Version 4
File size : 2.88 GiB
Duration : 46 min 3 s
Overall bit rate : 8 943 kb/s
Movie name : Chapter III: White Stork Spreads Wings
Track name/Position : 3/28
Description : Regent Sunny, a highly-skilled fighter and the deadliest "Head Clipper" for Baron Quinn battles the Nomads to rescue a mysterious boy named M.K. who harbors a dark secret about his past. But when he brings him back to The Fort to train as a "Colt", a Clipper-in-training, things quickly get out of hand with another trainee. When first blood is drawn, M.K. loses control of himself as if something takes over his body, making the boy valuable to an opposing baron, The Widow. Meanwhile, Sunny discovers M.K.'s pendant has the same image as the one on his childhood compass of a place called Azra, the boy's home. In order to seek out the truth about his own past, Sunny wants to know more of this city beyond the Badlands, and must find a way out, especially now that his lover Veil is illegally pregnant with his child.
Writing application : XviD4PSP 7.0.472 DAILY
Writing library : Lavf57.71.100
Comment : Rip by OldGamer
ErrorDetectionType : Per level 1
Attachments : poster.jpg
ACTORS : Daniel Wu, Orla Brady, Emily Beecham, Aramis Knight
ALBUM : Into the Badlands, Сезон 1-3
COUNTRY : USA
DATE : 2015-11-29
ENCODING_INFO : MATROSKA,WEBM > MKV / H264 > X265 CRF 19.3 Very Slow / AC3 > COPY Безопасное / AC3 > COPY Безопасное / AC3 > COPY Безопасное / TRUEHD > AC3 CBR 640kbps
EPISODE_SORT : 3
GENRE : Action, Adventure, Drama
HD_VIDEO : 1
IMDB_RATING : 8.2
ITUNEXTC : us-tv|TV-14|500|
Language : und
MEDIA_TYPE : 10
SEASON_NUMBER : 1
SHOW : Into the Badlands
WRITER : Alfred Gough, Miles Millar
Video
ID : 1
Format : HEVC
Format/Info : High Efficiency Video Coding
Format profile : Main 10@L4.1@High
Codec ID : V_MPEGH/ISO/HEVC
Duration : 46 min 3 s
Bit rate : 7 101 kb/s
Width : 1 920 pixels
Height : 1 080 pixels
Display aspect ratio : 16:9
Frame rate mode : Constant
Frame rate : 23.976 (24000/1001) FPS
Color space : YUV
Chroma subsampling : 4:2:0
Bit depth : 10 bits
Bits/(Pixel*Frame) : 0.143
Stream size : 2.28 GiB (79%)
Writing library : x265 2.9+9-f74003e88622:[Windows][GCC 8.2.0][64 bit] 10bit
Encoding settings : cpuid=1111039 / frame-threads=13 / numa-pools=12 / wpp / no-pmode / no-pme / no-psnr / no-ssim / log-level=3 / input-csp=1 / input-res=1920x1080 / interlace=0 / total-frames=0 / level-idc=41 / high-tier=1 / uhd-bd=0 / ref=5 / allow-non-conformance / no-repeat-headers / annexb / no-aud / no-hrd / info / hash=0 / no-temporal-layers / open-gop / min-keyint=23 / keyint=240 / gop-lookahead=0 / bframes=16 / b-adapt=2 / b-pyramid / bframe-bias=0 / rc-lookahead=60 / lookahead-slices=6 / scenecut=40 / radl=0 / no-intra-refresh / ctu=64 / min-cu-size=8 / rect / amp / max-tu-size=32 / tu-inter-depth=4 / tu-intra-depth=4 / limit-tu=1 / rdoq-level=2 / dynamic-rd=0.00 / no-ssim-rd / signhide / no-tskip / nr-intra=0 / nr-inter=0 / no-constrained-intra / no-strong-intra-smoothing / max-merge=5 / limit-refs=2 / no-limit-modes / me=3 / subme=7 / merange=57 / temporal-mvp / weightp / weightb / no-analyze-src-pics / deblock=-3:-3 / no-sao / no-sao-non-deblock / rd=6 / no-early-skip / rskip / no-fast-intra / no-tskip-fast / no-cu-lossless / no-b-intra / no-splitrd-skip / rdpenalty=0 / psy-rd=2.00 / psy-rdoq=1.00 / no-rd-refine / no-lossless / cbqpoffs=0 / crqpoffs=0 / rc=crf / crf=19.3 / qcomp=0.72 / qpstep=4 / stats-write=0 / stats-read=0 / vbv-maxrate=50000 / vbv-bufsize=50000 / vbv-init=0.9 / crf-max=0.0 / crf-min=0.0 / ipratio=1.40 / pbratio=1.30 / aq-mode=2 / aq-strength=0.80 / no-cutree / zone-count=0 / no-strict-cbr / qg-size=32 / no-rc-grain / qpmax=69 / qpmin=0 / no-const-vbv / sar=1 / overscan=0 / videoformat=5 / range=0 / colorprim=2 / transfer=2 / colormatrix=2 / chromaloc=0 / display-window=0 / max-cll=0,0 / min-luma=0 / max-luma=1023 / log2-max-poc-lsb=8 / vui-timing-info / vui-hrd-info / slices=1 / no-opt-qp-pps / no-opt-ref-list-length-pps / no-multi-pass-opt-rps / scenecut-bias=0.00 / no-opt-cu-delta-qp / aq-motion / no-hdr / no-hdr-opt / no-dhdr10-opt / no-idr-recovery-sei / analysis-reuse-level=5 / scale-factor=0 / refine-intra=0 / refine-inter=0 / refine-mv=0 / no-limit-sao / ctu-info=0 / no-lowpass-dct / refine-mv-type=0 / copy-pic=1 / max-ausize-factor=1.0 / no-dynamic-refine / no-single-sei
Default : Yes
Forced : No
Color range : Limited
Audio #1
ID : 2
Format : AC-3
Format/Info : Audio Coding 3
Commercial name : Dolby Digital
Codec ID : A_AC3
Duration : 46 min 3 s
Bit rate mode : Constant
Bit rate : 448 kb/s
Channel(s) : 6 channels
Channel layout : L R C LFE Ls Rs
Sampling rate : 48.0 kHz
Frame rate : 31.250 FPS (1536 SPF)
Bit depth : 16 bits
Compression mode : Lossy
Stream size : 148 MiB (5%)
Title : NewStudio
Language : Russian
Service kind : Complete Main
Default : Yes
Forced : No
Audio #2
ID : 3
Format : AC-3
Format/Info : Audio Coding 3
Commercial name : Dolby Digital
Codec ID : A_AC3
Duration : 46 min 3 s
Bit rate mode : Constant
Bit rate : 192 kb/s
Channel(s) : 2 channels
Channel layout : L R
Sampling rate : 48.0 kHz
Frame rate : 31.250 FPS (1536 SPF)
Bit depth : 16 bits
Compression mode : Lossy
Stream size : 63.3 MiB (2%)
Title : AMC
Language : Russian
Service kind : Complete Main
Default : No
Forced : No
Audio #3
ID : 4
Format : AC-3
Format/Info : Audio Coding 3
Commercial name : Dolby Digital
Codec ID : A_AC3
Duration : 46 min 3 s
Bit rate mode : Constant
Bit rate : 384 kb/s
Channel(s) : 2 channels
Channel layout : L R
Sampling rate : 48.0 kHz
Frame rate : 31.250 FPS (1536 SPF)
Bit depth : 16 bits
Compression mode : Lossy
Stream size : 127 MiB (4%)
Title : LostFilm
Language : Russian
Service kind : Complete Main
Default : No
Forced : No
Audio #4
ID : 5
Format : AC-3
Format/Info : Audio Coding 3
Commercial name : Dolby Digital
Codec ID : A_AC3
Duration : 46 min 3 s
Bit rate mode : Constant
Bit rate : 640 kb/s
Channel(s) : 6 channels
Channel layout : L R C LFE Ls Rs
Sampling rate : 48.0 kHz
Frame rate : 31.250 FPS (1536 SPF)
Bit depth : 16 bits
Compression mode : Lossy
Stream size : 211 MiB (7%)
Language : English
Service kind : Complete Main
Default : No
Forced : No

Release was prepared by RG Serials

If your ratio falls below 0.3, you will not be able to download Torrents! More about the rating.

[toptorrent.pw].t5819.torrent
Torrent: Registered [ 2019-04-25 14:08 ] · 68F367E6E39D5F103FE17EB9AAEC1DD1C75AF97A

Download .torrent

Download

193 KB

Status: checked
Completed: 0 times
Size: 19.17 GB
Rate: 
(Vote: 1)
Has thanked: 1  Thanks   (List)
terms.php
Display posts:    
Reply to topic

Current time is: 20-Jul 05:47

All times are UTC + 5



You cannot post new topics in this forum
You cannot reply to topics in this forum
You cannot edit your posts in this forum
You cannot delete your posts in this forum
You cannot vote in polls in this forum
You cannot attach files in this forum
You can download files in this forum