Счастливого нового дня смерти / Happy Death Day 2U (Кристофер Лэндон) [2019 г., Ужасы, триллер, детектив, WEB-DLRip] DUB [iTunes]

Reply to topic
 
Author Message

_Deimos_ ®

VIP пользователь

Gender: Male

Longevity: 1 year 3 months

Posts: 320

Карма: 33000 [+]

Location: Топторрент

Наличие запрета:

[Profile] [PM]

Post 26-Apr-2019 11:44

[Quote]

Счастливого нового дня смерти-
--Год выпуска: 2019
Страна: США
Жанр: Ужасы, триллер, детектив
Продолжительность: 01:39:57
Перевод: Дублированный [iTunes]--Режиссёр: Кристофер Лэндон--В ролях: Джессика Рот, Израэль Бруссар, Фи Ву, Сурадж Шарма, Сара Яркин, Рэйчел Мэттьюз, Руби Модин, Стив Зиссис, Чарльз Эйткин, Лаура Клифтон-- : На прошлый день рождения судьба преподнесла ей сомнительный подарок - праздник повторялся снова и снова, а в финале её неизменно убивал маньяк в маске. То ли дело в этом году: какое счастье проснуться с утра пораньше и оказаться в той же самой петле времени! Только теперь с тобой умирают все твои друзья...-- Качество: WEB-DLRip
Формат видео: AVI
Видео: Xvid, 720x304, 23.976 fps, 1690 kb/s
Аудио: AC3, 48.0 kHz, 6 channels, 384 kb/s--

Рейтинг фильма --
General
Complete name : G:\Kino\Happy.Death.Day.2U.2019.WEB-DLRip.ELEKTRI4KA.UNIONGANG.avi
Format : AVI
Format/Info : Audio Video Interleave
Format profile : OpenDML
File size : 1.46 GiB
Duration : 1 h 39 min
Overall bit rate : 2 086 kb/s
Movie name : Happy.Death.Day.2U.2019.ELEKTRI4KA.UNIONGANG
Writing application : Lavf57.71.100
Video
ID : 0
Format : MPEG-4 Visual
Format profile : Advanced Simple@L5
Format settings, BVOP : 1
Format settings, QPel : No
Format settings, GMC : No warppoints
Format settings, Matrix : Default (H.263)
Codec ID : XVID
Codec ID/Hint : XviD
Duration : 1 h 39 min
Bit rate : 1 690 kb/s
Width : 720 pixels
Height : 304 pixels
Display aspect ratio : 2.40:1
Frame rate : 23.976 (24000/1001) FPS
Color space : YUV
Chroma subsampling : 4:2:0
Bit depth : 8 bits
Scan type : Progressive
Compression mode : Lossy
Bits/(Pixel*Frame) : 0.322
Stream size : 1.18 GiB (81%)
Writing library : XviD 67
Audio
ID : 1
Format : AC-3
Format/Info : Audio Coding 3
Format settings, Endianness : Big
Codec ID : 2000
Duration : 1 h 39 min
Bit rate mode : Constant
Bit rate : 384 kb/s
Channel(s) : 6 channels
Channel positions : Front: L C R, Side: L R, LFE
Sampling rate : 48.0 kHz
Frame rate : 31.250 FPS (1536 SPF)
Bit depth : 16 bits
Compression mode : Lossy
Stream size : 275 MiB (18%)
Alignment : Aligned on interleaves
Interleave, duration : 32 ms (0.77 video frame)
Title : itunes.ELEKTRI4KA.UNIONGANG
Service kind : Complete Main

Release was prepared by RG Cinema

Display posts:    
Reply to topic

Current time is: 20-May 17:50

All times are UTC + 5



You cannot post new topics in this forum
You cannot reply to topics in this forum
You cannot edit your posts in this forum
You cannot delete your posts in this forum
You cannot vote in polls in this forum
You cannot attach files in this forum
You cannot download files in this forum