Петросян-шоу-28 (Эфир 12.04.2019) [2019г., Юмор, SATRip]

Reply to topic
DL-List and Torrent activity
Size:  1.74 GB   |    Registered:  21 day   |    Completed:  0 times
Seeders:  4  [  0 KB/s  ]   Show peers in full details
   
 
Author Message

фазилов ®

Gender: Male

Longevity: 1 year 3 months

Posts: 409

Карма: 4583 [+]

Location: Таш-море

Наличие запрета:

[Profile] [PM]

Post 29-Apr-2019 10:39

[Quote]

(ЭФИР 12.04.2019) Год выпуска: 2019
Страна: Россия
Жанр: Юмор
Продолжительность: 02:04:53
Описание: На телеканале "Россия" - новое яркое юмористическое "Петросян-шоу"! (Старое название передачи- "Кривое зеркало")
Мэтр эстрады выступит в роли не только артиста, но и ведущего программы. На сцене - любимые артисты и новые исполнители.
Как говорит сам Петросян, "эта передача, которую делают десятки людей, прежде всего, для хорошего настроения зрителей. Есть, конечно, и потаенная идея – попытка "толкнуть" жанр на новый виток развития, взбудоражить творческую фантазию, дать дорогу молодежи, если она откликнется, узнав о нашем шоу".
Смотрите в этом выпуске:

1.Е.Петросян - Юмор, смех, радость
2.О.Невежина и Д.Руднева - Снег-снежок
3.Клоунский дуэт "Клара Карловна и клоун Берлиоз"
4.Артисты "Петросян-шоу" – Съёмка рекламы
5.О.Невежина – Я пою
6.Е.Петросян и М. Смирнов - Кастинг на шоу
7.Н.Бандурин – Куплеты
8.А.Катков – Амбассадор
9.Е.Петросян – Случай на реке; Сватовство Джона
10.Г.Леви и Д.Руднева - СМС-романс
11.А.Морозов – Орехи
12.Е.Петросян, А.Буховцов, М.Белов – куплеты "Нескладушки"
13.К.Аванесян – Жених "Пять звёзд"
14.О.Невежина и Н.Бандурин – Жена уезжает в командировку
15.Д.Кузеняткин, Н.Андрецова, А.Сулацкова – Мужчины и женщины
Качество: SATRip
Формат: AVI

Видео кодек: XviD
Аудио кодек: AC3

Видео: 720х400 (1.80:1), 25 fps, XviD build 50 ~1800 kbps avg, 0.25 bit/pixel
Аудио: 48 kHz, AC3 Dolby Digital, 2/0 (L,R) ch, ~192 kbps

Общее
Полное имя : E:\Мои релизы-2\Петросян-шоу-28. Эфир 12.04.2019.avi
Формат : AVI
Формат/Информация : Audio Video Interleave
Размер файла : 1,74 Гбайт
Продолжительность : 2 ч. 4 м.
Общий поток : 2000 Кбит/сек
Программа кодирования : VirtualDubModRus 1.5.10.1 (build 2439/release)
Библиотека кодирования : VirtualDubMod build 2439/release
Видео
Идентификатор : 0
Формат : MPEG-4 Visual
Профиль формата : Advanced Simple@L5
Параметр BVOP формата : 2
Параметр QPel формата : Нет
Параметр GMC формата : Без точки перехода
Параметр матрицы формата : Default (H.263)
Идентификатор кодека : XVID
Идентификатор кодека/Подсказка : XviD
Продолжительность : 2 ч. 4 м.
Битрейт : 1798 Кбит/сек
Ширина : 720 пикселей
Высота : 400 пикселей
Соотношение сторон : 16:9
Частота кадров : 25,000 кадров/сек
Цветовое пространство : YUV
Субдискретизация насыщенности : 4:2:0
Битовая глубина : 8 бит
Тип развёртки : Прогрессивная
Метод сжатия : С потерями
Бит/(Пиксели*Кадры) : 0.250
Размер потока : 1,57 Гбайт (90%)
Библиотека кодирования : XviD 1.2.1 (UTC 2008-12-04)
Аудио
Идентификатор : 1
Формат : AC-3
Формат/Информация : Audio Coding 3
Расширение режима : CM (complete main)
Параметр Endianness формата : Big
Идентификатор кодека : 2000
Продолжительность : 2 ч. 4 м.
Вид битрейта : Постоянный
Битрейт : 192 Кбит/сек
Каналы : 2 канала
Расположение каналов : Front: L R
Частота : 48,0 КГц
Частота кадров : 31,250 кадров/сек (1536 spf)
Битовая глубина : 16 бит
Метод сжатия : С потерями
Размер потока : 172 Мбайт (10%)
Выравнивание : Разделение по промежуткам
Продолжительность промежутка : 40 мс. (1,00 видеокадр)
Время предзагрузки промежутка : 500 мс.
Релиз подготовлен группой Мои релизы

If your ratio falls below 0.3, you will not be able to download Torrents! More about the rating.

[toptorrent.pw].t5830.torrent
Torrent: Registered [ 2019-04-29 10:39 ] · C9E9539BB34C2A2143FEF05FA93AE5B976CF9B98

Download .torrent

Download

18 KB

Status: checked
Completed: 0 times
Size: 1.74 GB
Rate: 
(Vote: 2)
Has thanked: 1  Thanks   (List)
terms.php
Display posts:    
Reply to topic

Current time is: 20-May 18:17

All times are UTC + 5



You cannot post new topics in this forum
You cannot reply to topics in this forum
You cannot edit your posts in this forum
You cannot delete your posts in this forum
You cannot vote in polls in this forum
You cannot attach files in this forum
You can download files in this forum