Сердце / Покои / Chambers / Сезон 1 / Серии 1-10 из 10 (Сидни Фриланд, Альфонсо Гомес-Рехон, Дана Гонсалес) [2019 г., Драма, Фантастика, Ужасы, Мистика, Триллер, WEB-DL 1080p] MVO (LostFilm) + Original Eng

Reply to topic

DL-List and Torrent activity
Size:  23.39 GB   |    Registered:  2 months 21 day   |    Completed:  0 times
Seeders:  1  [  0 KB/s  ]   Show peers in full details
 
 
 
 
Author Message

.:Mercury:. ®

Gender: Male

Longevity: 1 year 7 months

Posts: 3527

Карма: 31947 [+]

Наличие запрета:

[Profile] [PM]

Post 30-Apr-2019 10:36

[Quote]

Сердце / Покои / Chambers- - -Год выпуска: 2019
Страна: США
Жанр: Драма, Фантастика, Ужасы, Мистика, Триллер
Продолжительность: ~ 00:46:00
Перевод: Профессиональный (многоголосый, закадровый) LostFilm--Режиссер: Сидни Фриланд, Альфонсо Гомес-Рехон, Дана Гонсалес--В ролях: Сиван Алира Роуз, Гриффин Пауэлл-Арканд, Николас Голицын, Тони Голдуин, Маркус ЛаВой, Лиллия Рейд, Кайанна Симон, Ума Турман, Лилли Кей, Сара Меццанотте--Описание: Попытка расстаться с девственностью оборачивается для старшеклассницы Саши Яззи (Сиван Алира Роуз) сущим кошмаром: прямо в разгар свидания со своим парнем Ти Джеем (Гриффин Пауэлл-Арканд) девушка теряет сознание от сильной боли в груди. Романтический вечер заканчивается звонком в службу спасения и визитом в ближайший госпиталь. Медики выясняют, что Саша пережила инфаркт и срочно нуждается в трансплантации. Волею судеб в ту же ночь происходит еще одна страшная трагедия, унесшая жизнь другой местной школьницы — Бекки Лефевр (Лиллия Рейд). Благодаря этому странному совпадению Яззи как по заказу получает новое сердце. Оправившись от последствий операции, девушка знакомится с родителями своей спасительницы — Беном (Тони Голдуин) и Нэнси (Ума Турман). Состоятельная пара хочет участвовать в жизни Саши и предлагает той занять место их умершей дочери в престижной частной школе. Саша соглашается на щедрое предложение, еще не подозревая, что чем глубже она погрузится в новую среду и семью своей спасительницы, тем чаще ей будет казаться, что она получила не только сердце, но и частичку души Бекки. Страшные галлюцинации, грязные секреты родных и друзей Бекки, вспышки агрессии, не свойственные Саше — все это лишь первые ласточки ее новой, окутанной мистикой и паранойей жизни…--Доп. информация: «Сердце» — остросюжетный хоррор с налетом мистики, заслуживший лестное сравнение с оскароносным кинохитом «Прочь». Как и нашумевшая картина Джордана Пила, проект онлайн-сервиса Netflix не просто удачно соединяет черты тонкого психологического триллера и леденящего душу ужастика, но и затрагивает важнейшие социальные проблемы современного общества. Идея создания сериала принадлежит молодой сценаристке Лее Рэйчел, которая уже успела достичь определенных высот в области короткометражного кино. Чтобы добиться идеального сплава юности и опыта, руководство Netflix пригласило в съемочную команду «Сердца» двукратного номинанта на премию «Эмми» Альфонсо Гомез-Рейона («Американская история ужасов»), Тая Уэста («Изгой», «Крик») и многих других знатоков жанра хоррор. Настоящим украшением сериала также является его прекрасный актерский состав, в котором нашлось место как для талантливой молодежи, так и для именитых старожилов Голливуда во главе с многолетней музой Квентина Тарантино, звездой «Криминального чтива» и «Убить Билла» Умой Турман.--Качество: WEB-DL 1080p
Формат: MKV
Видео кодек: H.264
Аудио кодек: AC3
Видео: MPEG4 Video (H264) 1920x1080 23.976fps 6 800 kb/s
Аудио: Dolby AC3 48000Hz stereo 384kbps | Rus, Eng
General
Unique ID : 212442733906479755500618194073750719610 (0x9FD2FB760891C93D9A6002192859CC7A)
Complete name : F:\Restored\Chambers.2019.S01E01.1080p.rus.LostFilm.TV.mkv
Format : Matroska
Format version : Version 4
File size : 2.60 GiB
Duration : 49 min 16 s
Overall bit rate : 7 556 kb/s
Encoded date : UTC 2019-04-29 22:48:08
Writing application : mkvmerge v9.5.0 ('Quiet Fire') 64bit
Writing library : libebml v1.3.4 + libmatroska v1.4.5
Video
ID : 1
Format : AVC
Format/Info : Advanced Video Codec
Format profile : High@L4.1
Format settings : CABAC / 4 Ref Frames
Format settings, CABAC : Yes
Format settings, ReFrames : 4 frames
Codec ID : V_MPEG4/ISO/AVC
Duration : 49 min 14 s
Bit rate : 6 800 kb/s
Width : 1 920 pixels
Height : 1 080 pixels
Display aspect ratio : 16:9
Frame rate mode : Constant
Frame rate : 23.976 (24000/1001) FPS
Original frame rate : 23.976 (23976/1000) FPS
Color space : YUV
Chroma subsampling : 4:2:0
Bit depth : 8 bits
Scan type : Progressive
Bits/(Pixel*Frame) : 0.137
Stream size : 2.34 GiB (90%)
Writing library : x264 core 112 r1834 a51816a
Encoding settings : cabac=1 / ref=4 / deblock=1:-3:-2 / analyse=0x3:0x113 / me=hex / subme=7 / psy=1 / psy_rd=1.00:0.00 / mixed_ref=1 / me_range=16 / chroma_me=1 / trellis=1 / 8x8dct=1 / cqm=0 / deadzone=21,11 / fast_pskip=1 / chroma_qp_offset=-2 / threads=12 / sliced_threads=0 / nr=0 / decimate=1 / interlaced=0 / constrained_intra=0 / bframes=5 / b_pyramid=2 / b_adapt=1 / b_bias=0 / direct=1 / weightb=1 / open_gop=0 / weightp=2 / keyint=250 / keyint_min=25 / scenecut=40 / intra_refresh=0 / rc_lookahead=40 / rc=2pass / mbtree=1 / bitrate=6800 / ratetol=1.0 / qcomp=0.60 / qpmin=0 / qpmax=51 / qpstep=4 / cplxblur=20.0 / qblur=0.5 / vbv_maxrate=10000 / vbv_bufsize=256000 / ip_ratio=1.40 / aq=1:1.00 / nal_hrd=none
Default : Yes
Forced : No
Audio #1
ID : 2
Format : AC-3
Format/Info : Audio Coding 3
Commercial name : Dolby Digital
Codec ID : A_AC3
Duration : 49 min 16 s
Bit rate mode : Constant
Bit rate : 384 kb/s
Channel(s) : 2 channels
Channel layout : L R
Sampling rate : 48.0 kHz
Frame rate : 31.250 FPS (1536 SPF)
Bit depth : 16 bits
Compression mode : Lossy
Stream size : 135 MiB (5%)
Service kind : Complete Main
Default : Yes
Forced : No
Audio #2
ID : 3
Format : AC-3
Format/Info : Audio Coding 3
Commercial name : Dolby Digital
Codec ID : A_AC3
Duration : 49 min 14 s
Bit rate mode : Constant
Bit rate : 384 kb/s
Channel(s) : 2 channels
Channel layout : L R
Sampling rate : 48.0 kHz
Frame rate : 31.250 FPS (1536 SPF)
Bit depth : 16 bits
Compression mode : Lossy
Stream size : 135 MiB (5%)
Service kind : Complete Main
Default : No
Forced : No

Release was prepared by RG Serials



If your ratio falls below 0.3, you will not be able to download Torrents! More about the rating.

[toptorrent.pw].t5834.torrent
Torrent: Registered [ 2019-06-29 00:12 ] · EFFA866E2D0904BF7A8699B99541E8864FDD3D4A

Download .torrent

Download

60 KB

Status: checked
Completed: 0 times
Size: 23.39 GB
Rate: 
(Vote: 1)
Has thanked: 1  Thanks   (List)
terms.php


Last edited by .:Mercury:. on 2019-06-29 00:12; edited 8 times in total

.:Mercury:. ®

Gender: Male

Longevity: 1 year 7 months

Posts: 3527

Карма: 31947 [+]

Наличие запрета:

[Profile] [PM]

Post 07-May-2019 09:48 (after 6 days)

[Quote]

+2-я серия 

.:Mercury:. ®

Gender: Male

Longevity: 1 year 7 months

Posts: 3527

Карма: 31947 [+]

Наличие запрета:

[Profile] [PM]

Post 17-May-2019 00:32 (after 9 days)

[Quote]

+3-я серия 

.:Mercury:. ®

Gender: Male

Longevity: 1 year 7 months

Posts: 3527

Карма: 31947 [+]

Наличие запрета:

[Profile] [PM]

Post 24-May-2019 09:39 (after 7 days)

[Quote]

+4-я серия 

.:Mercury:. ®

Gender: Male

Longevity: 1 year 7 months

Posts: 3527

Карма: 31947 [+]

Наличие запрета:

[Profile] [PM]

Post 30-May-2019 20:42 (after 6 days)

[Quote]

+5-я серия 

.:Mercury:. ®

Gender: Male

Longevity: 1 year 7 months

Posts: 3527

Карма: 31947 [+]

Наличие запрета:

[Profile] [PM]

Post 06-Jun-2019 17:23 (after 6 days)

[Quote]

+6-я серия 

.:Mercury:. ®

Gender: Male

Longevity: 1 year 7 months

Posts: 3527

Карма: 31947 [+]

Наличие запрета:

[Profile] [PM]

Post 14-Jun-2019 10:27 (after 7 days)

[Quote]

+7-я серия 

.:Mercury:. ®

Gender: Male

Longevity: 1 year 7 months

Posts: 3527

Карма: 31947 [+]

Наличие запрета:

[Profile] [PM]

Post 20-Jun-2019 16:17 (after 6 days)

[Quote]

+8-я серия 

.:Mercury:. ®

Gender: Male

Longevity: 1 year 7 months

Posts: 3527

Карма: 31947 [+]

Наличие запрета:

[Profile] [PM]

Post 27-Jun-2019 17:58 (after 7 days)

[Quote]

+9-я серия 

.:Mercury:. ®

Gender: Male

Longevity: 1 year 7 months

Posts: 3527

Карма: 31947 [+]

Наличие запрета:

[Profile] [PM]

Post 29-Jun-2019 00:12 (after 1 day 6 hours)

[Quote]

+Заключительная серия 
Display posts:    
Reply to topic

Current time is: 20-Sep 14:33

All times are UTC + 5



You cannot post new topics in this forum
You cannot reply to topics in this forum
You cannot edit your posts in this forum
You cannot delete your posts in this forum
You cannot vote in polls in this forum
You cannot attach files in this forum
You can download files in this forum