Закатать в асфальт / Dragged Across Concrete (С. Крэйг Залер) [2018, Боевик, триллер, драма, HDRip] DUB [iTunes]

Reply to topic

DL-List and Torrent activity
Size:  2.04 GB   |    Registered:  7 months 12 days   |    Completed:  1 time

Seeder not seen: 4 months 13 days

 
 
 
 
Author Message

_Deimos_ ®

VIP пользователь

Gender: Male

Longevity: 1 year 10 months

Posts: 379

Карма: 33000 [+]

Наличие запрета:

[Profile] [PM]

Post 30-Apr-2019 13:43

[Quote]

Закатать в асфальт / Dragged Across Concrete- --Год выпуска: 2018
Страна: Канада, США
Жанр: Боевик, триллер, драма
Продолжительность: 02:38:23
Перевод: Дублированный [iTunes]--Режиссёр: С. Крэйг Залер--В ролях: Мэл Гибсон, Винс Вон, Дженнифер Карпентер, Майкл Джей Уайт, Лори Холден, Дон Джонсон, Томас Кречманн, Удо Кир, Лианнет Боррего, Джастин Уоррингтон-- : Старого ищейку Риджмана и безбашенного Энтони отстраняют от дел после того, как в сеть попадает видео, где напарники жестко выбивают признание из подозреваемого. Не имея других средств к существованию, экс-копы находят работу в криминальном подполье, где их главным врагом становится вышедший из тюрьмы Генри Джонс, мечтающий о мести полиции.-- Качество: HDRip
Формат видео: AVI
Видео: Xvid, 720x304, 23.976 fps, 1452 kb/s
Аудио: AC3, 48.0 kHz, 6 channels, 384 kb/s--

Рейтинг фильма --
General
Complete name : G:\Kino\Dragged.Across.Concrete.2018.HDRip.avi
Format : AVI
Format/Info : Audio Video Interleave
Format profile : OpenDML
File size : 2.04 GiB
Duration : 2 h 38 min
Overall bit rate : 1 848 kb/s
Movie name : D
Director : E
Writing application : V
Copyright : U
Video
ID : 0
Format : MPEG-4 Visual
Format profile : Advanced Simple@L5
Format settings, BVOP : 2
Format settings, QPel : No
Format settings, GMC : No warppoints
Format settings, Matrix : Custom
Codec ID : XVID
Codec ID/Hint : XviD
Duration : 2 h 38 min
Bit rate : 1 452 kb/s
Width : 720 pixels
Height : 304 pixels
Display aspect ratio : 2.35:1
Frame rate : 23.976 (24000/1001) FPS
Color space : YUV
Chroma subsampling : 4:2:0
Bit depth : 8 bits
Scan type : Progressive
Compression mode : Lossy
Bits/(Pixel*Frame) : 0.277
Stream size : 1.61 GiB (79%)
Writing library : XviD 1.2.1 (UTC 2008-12-04)
Audio
ID : 1
Format : AC-3
Format/Info : Audio Coding 3
Format settings, Endianness : Big
Codec ID : 2000
Duration : 2 h 38 min
Bit rate mode : Constant
Bit rate : 384 kb/s
Channel(s) : 6 channels
Channel positions : Front: L C R, Side: L R, LFE
Sampling rate : 48.0 kHz
Frame rate : 31.250 FPS (1536 SPF)
Bit depth : 16 bits
Compression mode : Lossy
Stream size : 435 MiB (21%)
Alignment : Split accross interleaves
Interleave, duration : 42 ms (1.00 video frame)
Interleave, preload duration : 500 ms
Service kind : Complete Main

Release was prepared by RG Cinema



If your ratio falls below 0.3, you will not be able to download Torrents! More about the rating.

[toptorrent.pw].t5835.torrent
Torrent: Registered [ 2019-04-30 13:43 ] · 5798AC391A177A250F238C4E6F7E6E96A72FBE41

Download .torrent

Download

11 KB

Status: checked
Completed: 1 times
Size: 2.04 GB
Rate: 
(Vote: 2)
Has thanked: 2  Thanks   (List)
terms.php
Display posts:    
Reply to topic

Current time is: 13-Dec 02:40

All times are UTC + 5



You cannot post new topics in this forum
You cannot reply to topics in this forum
You cannot edit your posts in this forum
You cannot delete your posts in this forum
You cannot vote in polls in this forum
You cannot attach files in this forum
You can download files in this forum