Отпуск за период службы / Сезон: 1 / Серии: 1-4 из 4 (Станислав Мареев) [2019, Боевик, Криминал, SATRip]

Reply to topic
DL-List and Torrent activity
Size:  2.51 GB   |    Registered:  2 months 17 days   |    Completed:  0 times

Seeder not seen: 2 months 14 days

 
 
 
 
Author Message

.:Mercury:. ®

Gender: Male

Longevity: 1 year 5 months

Posts: 3405

Карма: 31947 [+]

Наличие запрета:

[Profile] [PM]

Post 02-May-2019 07:50

[Quote]

Отпуск за период службы- -Год выпуска: 2019
Страна: Россия
Жанр: Боевик, Криминал
Продолжительность: 4х 00:48:00--Режиссёр: Станислав Мареев--В ролях: Игорь Несветаев, Кристина Борейко, Оксана Чивелёва, Александр Фисенко, Павел Южаков-Харланчук--Описание: Сержант-контрактник Игорь Беликов берет отпуск, чтобы навестить больного отца. По дороге он случайно становится пешкой в игре криминальных структур. Спасаясь от неожиданного нападения, Игорь убивает нескольких бандитов и угоняет фургон, в котором находится ценный груз. За Игорем начинается «охота». Полиция также идет по его следу. Выясняется, что отец Игоря не болен. Что же заставило героя взять отпуск и куда он направляется?--Качество видео: SATRip
Формат: AVI-Видео: Xvid 720x400 25fps 1799kbps
Аудио: MP3 48000Hz stereo 128kbps 2ch
General
Complete name : D:\Otpusk.za.period.sluzhby.SATRip\Otpusk.za.period.sluzhby.02.SATRip.[www.riperam.org].avi
Format : AVI
Format/Info : Audio Video Interleave
File size : 623 MiB
Duration : 44 min 58 s
Overall bit rate : 1 938 kb/s
Writing application : VirtualDubMod 1.5.10.3 | www.virtualdub-fr.org || (build 2550/release)
Writing library : VirtualDubMod build 2550/release
Video
ID : 0
Format : MPEG-4 Visual
Format profile : Advanced Simple@L5
Format settings : BVOP2
Format settings, BVOP : 2
Format settings, QPel : No
Format settings, GMC : No warppoints
Format settings, Matrix : Default (H.263)
Codec ID : XVID
Codec ID/Hint : XviD
Duration : 44 min 58 s
Bit rate : 1 800 kb/s
Width : 720 pixels
Height : 400 pixels
Display aspect ratio : 16:9
Frame rate : 25.000 FPS
Color space : YUV
Chroma subsampling : 4:2:0
Bit depth : 8 bits
Scan type : Progressive
Compression mode : Lossy
Bits/(Pixel*Frame) : 0.250
Stream size : 579 MiB (93%)
Writing library : XviD 1.2.1 (UTC 2008-12-04)
Audio
ID : 1
Format : MPEG Audio
Format version : Version 1
Format profile : Layer 3
Format settings : Joint stereo / MS Stereo
Codec ID : 55
Codec ID/Hint : MP3
Duration : 44 min 58 s
Bit rate mode : Constant
Bit rate : 128 kb/s
Channel(s) : 2 channels
Sampling rate : 48.0 kHz
Frame rate : 41.667 FPS (1152 SPF)
Compression mode : Lossy
Stream size : 41.2 MiB (7%)
Alignment : Aligned on interleaves
Interleave, duration : 40 ms (1.00 video frame)
Interleave, preload duration : 504 ms
Writing library : LAME3.99r
Encoding settings : -m j -V 4 -q 9 -lowpass 17 -b 128

Release was prepared by RG Serials

If your ratio falls below 0.3, you will not be able to download Torrents! More about the rating.

[toptorrent.pw].t5849.torrent
Torrent: Registered [ 2019-05-02 07:50 ] · 013139F5834AE29CB978F4BF029437E78176236A

Download .torrent

Download

101 KB

Status: checked
Completed: 0 times
Size: 2.51 GB
Rate: 
(Vote: 3)
Has thanked: 4  Thanks   (List)
terms.php
Display posts:    
Reply to topic

Current time is: 20-Jul 05:47

All times are UTC + 5



You cannot post new topics in this forum
You cannot reply to topics in this forum
You cannot edit your posts in this forum
You cannot delete your posts in this forum
You cannot vote in polls in this forum
You cannot attach files in this forum
You can download files in this forum