Балканский рубеж (Андрей Волгин) [2019 г., Боевик, драма, WEB-DLRip] [iTunes]

Reply to topic
 
Author Message

_Deimos_ ®

VIP пользователь

Gender: Male

Longevity: 1 year 3 months

Posts: 320

Карма: 33000 [+]

Location: Топторрент

Наличие запрета:

[Profile] [PM]

Post 02-May-2019 15:55

[Quote]


--Год выпуска: 2019
Страна: Россия
Жанр: Боевик, драма
Продолжительность: 02:30:36
Перевод: Не требуется [iTunes]--Режиссёр: Андрей Волгин--В ролях: Антон Пампушный, Гоша Куценко, Милош Бикович, Милена Радулович, Гойко Митич, Равшана Куркова, Дмитрий Фрид, Александар Сречкович, Светлана Чуйкина, Миодраг Радонич-- : Югославия. 1999 год. Российская спецгруппа получает приказ взять под контроль аэродром Слатина в Косово и удерживать его до прихода подкрепления. Но этот стратегический объект крайне важен албанскому полевому командиру и натовским генералам. Группа вынуждена принять неравный бой с террористами. К аэродрому устремляются российские миротворцы и силы НАТО. Мир вновь близок к большой войне. Но командиру спецгруппы Андрею Шаталову не до политики: в аэропорту среди заложников его любимая девушка Ясна…-- Качество: WEB-DLRip
Формат видео: AVI
Видео: Xvid, 720x304, 24 fps, 1565 kb/s
Аудио: AC3, 48.0 kHz, 6 channels, 384 kb/s--

Рейтинг фильма --
General
Complete name : G:\Kino\Balkanskiy.Rubezh.2019.O.WEB-DLRip.avi
Format : AVI
Format/Info : Audio Video Interleave
Format profile : OpenDML
File size : 2.06 GiB
Duration : 2 h 30 min
Overall bit rate : 1 962 kb/s
Movie name : B
Director : E
Writing application : V
Copyright : U
Video
ID : 0
Format : MPEG-4 Visual
Format profile : Advanced Simple@L5
Format settings, BVOP : 2
Format settings, QPel : No
Format settings, GMC : No warppoints
Format settings, Matrix : Custom
Codec ID : XVID
Codec ID/Hint : XviD
Duration : 2 h 30 min
Bit rate : 1 565 kb/s
Width : 720 pixels
Height : 304 pixels
Display aspect ratio : 2.35:1
Frame rate : 24.000 FPS
Color space : YUV
Chroma subsampling : 4:2:0
Bit depth : 8 bits
Scan type : Progressive
Compression mode : Lossy
Bits/(Pixel*Frame) : 0.298
Stream size : 1.65 GiB (80%)
Writing library : XviD 65
Audio
ID : 1
Format : AC-3
Format/Info : Audio Coding 3
Format settings, Endianness : Big
Codec ID : 2000
Duration : 2 h 30 min
Bit rate mode : Constant
Bit rate : 384 kb/s
Channel(s) : 6 channels
Channel positions : Front: L C R, Side: L R, LFE
Sampling rate : 48.0 kHz
Frame rate : 31.250 FPS (1536 SPF)
Bit depth : 16 bits
Compression mode : Lossy
Stream size : 414 MiB (20%)
Alignment : Split accross interleaves
Interleave, duration : 42 ms (1.00 video frame)
Interleave, preload duration : 500 ms
Service kind : Complete Main

Release was prepared by RG Cinema

TOTsamyiTIP

Gender: Male

Longevity: 1 year 3 months

Posts: 509

Карма: 4802 [+]

Location: Ташкент

Наличие запрета:

[Profile] [PM]

Post 02-May-2019 18:56 (after 3 hours)

[Quote]

Довольно таки интересно сняли! +

фазилов

Gender: Male

Longevity: 1 year 3 months

Posts: 409

Карма: 4583 [+]

Location: Таш-море

Наличие запрета:

[Profile] [PM]

Post 03-May-2019 07:52 (after 12 hours)

[Quote]

Гойко Митич. Качаем,+5
Display posts:    
Reply to topic

Current time is: 20-May 17:24

All times are UTC + 5



You cannot post new topics in this forum
You cannot reply to topics in this forum
You cannot edit your posts in this forum
You cannot delete your posts in this forum
You cannot vote in polls in this forum
You cannot attach files in this forum
You cannot download files in this forum