Игра престолов / Game of Thrones / Сезон 1-8 из 8 / Серии 1-73 из 73 (Алан Тейлор, Даниэль Минахан, Дэвид Наттер) [2011-2019, Драма, фэнтези, приключения, экранизация, BDRip 1080p, WEB-DL 1080p, HEVC, 8bit] DUB (РенТВ, Кравец) + Original + Sub Rus

Reply to topic
DL-List and Torrent activity
Size:  107.12 GB   |    Registered:  1 month 23 days   |    Completed:  0 times
Seeders:  4  [  0 KB/s  ]   Leechers:  6  [  0 KB/s  ]   Show peers in full details
   
 
Author Message

.:Mercury:. ®

Gender: Male

Longevity: 1 year 5 months

Posts: 3404

Карма: 31947 [+]

Наличие запрета:

[Profile] [PM]

Post 02-May-2019 17:15

[Quote]

Название:
Игра престолов
Оригинальное название:
Game of Thrones
Год выпуска:
2011-2019
Жанр:
Драма, фэнтези, приключения, экранизация
Выпущено:
США, Bighead Littlehead, Created By, Embassy Films, Home Box Office (HBO)
Продолжительность:
69 x ~ 00:57:00
Перевод:
Дублированный, 1-3 сезоны - РЕН-ТВ, 4-8 сезоны - Амедиа (Кравец)
Субтитры:
Русские, обычные и форсированные (отключаемые)
Реклама:
Отсутствует--Режиссер:
Брайан Кирк, Даниэль Минахан, Алан Тейлор, Дэвид Петрарка, Дэвид Наттер, Дэвид Бениофф--В ролях:
Шон Бин, Николай Костер-Валдау, Лина Хиди, Иэн Глен, Питер Динклэйдж, Эмилия Кларк, Мишель Фэйрли, Эйден Гиллен, Кит Харингтон, Марк Эдди, Элфи Оуэн-Аллен, Джек Глисон, Софи Тёрнер, Мэйси Уильямс, Рон Донаки, Айзек Хемпстед-Райт, Джейсон Момоа, Ричард Мэдден, Джером Флинн, Конлет Хилл, Дональд Самптер, Рори МакКанн, Амрита Ачария, Чарльз Дэнс, Джон Брэдли, Кристиан Нэйрн, Сибель Кекилли, Джеймс Космо, Стивен Диллэйн, Гетин Энтони, Гвендолин Кристи, Натали Дормер, Уна Чаплин, Нонсо Анози, Роуз Лесли--О фильме:
«Игра престолов» - сериал HBO, основанный на бестселлерах Джорджа Р.Р. Мартина. В мире, где лето и зимы длятся десятилетиями, на кону корона Вестероса. Предательство, похоть, интриги и сверхъестественные силы сотрясают все четыре стороны Королевства — от плетущего интриги юга, диких восточных земель, до замерзшего севера и древней Стены, что защищает королевство от тьмы за нею. Короли и королевы, рыцари и мятежники, лжецы и благородные люди борются за власть в кровавом сражении за Железный Трон.
--
Сезон 1:
01. Зима близко (Winter Is Coming)
02. Королевский тракт (The Kingsroad)
03. Лорд Сноу (Lord Snow)
04. Калеки, бастарды и сломанные вещи (Cripples, Bastards, and Broken Things)
05. Волк и лев (The Wolf and the Lion)
06. Золотая корона (A Golden Crown)
07. Ты побеждаешь или погибаешь (You Win or You Die)
08. Острый конец (The Pointy End)
09. Бейелор (Baelor)
10. Пламя и кровь (Fire and Blood)
Сезон 2:
01. Север помнит (The North Remembers)
02. Ночные земли (The Night Lands)
03. То, что мертво, умереть не может (What Is Dead May Never Die)
04. Сад костей (Garden of Bones)
05. Призрак Харренхола (The Ghost of Harrenhal)
06. Боги старые и новые (The Old Gods and the New)
07. Человек без чести (A Man Without Honor)
08. Принц Винтерфелла (The Prince of Winterfell)
09. Черноводная (Blackwater)
10. Валар Моргулис (Valar Morghulis)
Сезон 3:
01. Валар Дохаэрис (Valar Dohaeris)
02. Чёрные крылья, чёрные вести (Dark Wings, Dark Words)
03. Стезя страданий (Walk of Punishment)
04. Теперь его дозор окончен (And Now His Watch Is Ended)
05. Поцелованная огнём (Kissed by Fire)
06. Подъём (The Climb)
07. Медведь и прекрасная дева (The Bear and the Maiden Fair)
08. Младшие Сыны (Second Sons)
09. Рейны из Кастамере (The Rains of Castamere)
10. Миса (Mhysa)
Сезон 4:
01. Два меча (Two Swords)
02. Лев и Роза (The Lion and the Rose)
03. Разрушительница оков (Breaker of Chains)
04. Верный клятве (Oathkeeper)
05. Первый этого имени (First of His Name)
06. Законы богов и людей (The Laws of Gods and Men )
07. Пересмешник (Mockingbird)
08. Гора и Змей (The Mountain and the Viper)
09. Дозорные на Стене (The Watchers on the Wall)
10. Дети (The Children)
Сезон 5:
01. Грядущие войны (The Wars to Come)
02. Черно-белый дом (The House of Black and White)
03. Его Воробейшество (High Sparrow)
04. Сыны Гарпии (The Sons of the Harpy)
05. Убей мальчишку (Kill the Boy)
06. Непокорны, несгибаемы, не сломлены (Unbowed, Unbent, Unbroken)
07. Дар (The Gift)
08. Суровый дом (Hardhome)
09. Танец драконов (The Dance of Dragons)
10. Милосердие матери (Mother's Mercy)
Сезон 6:
01. Красная женщина / The Red Woman
02. Дом / Home
03. Нарушивший клятву / Oathbreaker
04. Книга Неведомого / Book of the Stranger
05. Дверь / The Door
06. Кровь моей крови / Blood of My Blood
07. Сломленный человек / The Broken Man
08. Никто / No One
09. Битва бастардов / Battle of the Bastards
10. Ветра зимы / The Winds of Winte
Сезон 7:
01. Драконий камень / Dragonston
02. Бурерожденная / Stormborn
03. Правосудие королевы / The Queen's Justice
04. Трофеи войны / The Spoils of War
05. Восточный Дозор / Eastwatch
06. За Стеной / Beyond the Wall
07. Дракон и Волк / The Dragon and the Wolf
Сезон 8:
01. Винтерфелл | Winterfell
02. Рыцарь семи королевств | A Knight of the Seven Kingdoms
03. Долгая Ночь | The Long Night
04. (05.05.2019)
05. (12.05.2019)
06. (19.05.2019)
--Технические данные:
Качество: BDRip 1080p [HEVC, 8bit]
Формат: MKV
Видео кодек: HVC1
Аудио кодек: AC-3
Видео: HVC1 1920x1080 23.976fps 3 248 kb/s
Аудио: Dolby AC3 48000Hz stereo 192kbps | Rus, Eng
General
Unique ID : 13468727868405365145439139035358777921 (0xA21FB8DBC3195AC626A8A4690555241)
Complete name : D:\Game.of.Thrones\s01e05.Game.of.Thrones.BDRip.mkv
Format : Matroska
Format version : Version 4
File size : 1.38 GiB
Duration : 54 min 16 s
Overall bit rate : 3 635 kb/s
Movie name : s01e05_hevc
Encoded date : UTC 2019-04-12 17:47:30
Writing application : mkvmerge v32.0.0 ('Astral Progressions') 64-bit
Writing library : libebml v1.3.7 + libmatroska v1.5.0
Video
ID : 1
Format : HEVC
Format/Info : High Efficiency Video Coding
Format profile : Main@L4@Main
Codec ID : V_MPEGH/ISO/HEVC
Duration : 54 min 16 s
Bit rate : 3 248 kb/s
Width : 1 920 pixels
Height : 1 080 pixels
Display aspect ratio : 16:9
Frame rate mode : Constant
Frame rate : 23.976 (24000/1001) FPS
Standard : Component
Color space : YUV
Chroma subsampling : 4:2:0
Bit depth : 8 bits
Bits/(Pixel*Frame) : 0.065
Stream size : 1.23 GiB (89%)
Title : s01e05_hevc
Default : Yes
Forced : No
Color range : Limited
Audio #1
ID : 2
Format : AC-3
Format/Info : Audio Coding 3
Commercial name : Dolby Digital
Codec ID : A_AC3
Duration : 54 min 16 s
Bit rate mode : Constant
Bit rate : 192 kb/s
Channel(s) : 2 channels
Channel layout : L R
Sampling rate : 48.0 kHz
Frame rate : 31.250 FPS (1536 SPF)
Bit depth : 16 bits
Compression mode : Lossy
Stream size : 74.5 MiB (5%)
Title : Dub Ru
Language : Russian
Service kind : Complete Main
Default : Yes
Forced : Yes
Audio #2
ID : 3
Format : AC-3
Format/Info : Audio Coding 3
Commercial name : Dolby Digital
Codec ID : A_AC3
Duration : 54 min 16 s
Bit rate mode : Constant
Bit rate : 192 kb/s
Channel(s) : 2 channels
Channel layout : L R
Sampling rate : 48.0 kHz
Frame rate : 31.250 FPS (1536 SPF)
Bit depth : 16 bits
Compression mode : Lossy
Stream size : 74.5 MiB (5%)
Title : Original
Language : English
Service kind : Complete Main
Default : No
Forced : No
Text
ID : 4
Format : UTF-8
Codec ID : S_TEXT/UTF8
Codec ID/Info : UTF-8 Plain Text
Duration : 50 min 51 s
Bit rate : 135 b/s
Count of elements : 717
Stream size : 50.3 KiB (0%)
Title : Sub Ru
Language : Russian
Default : Yes
Forced : No
Качество: BDRip 1080p [HEVC, 8bit]
Формат: MKV
Видео кодек:HVC1
Аудио кодек: AC-3
Видео: HVC1 1920x1080 23.976fps 3 243 kb/s
Аудио: Dolby AC3 48000Hz stereo 192kbps 2ch | Rus, Eng
General
Unique ID : 328819023410431968225593175656428030613 (0xF7603D876211766F0268DD5D2DB14A95)
Complete name : D:\Game.of.Thrones\s02e05.Game.of.Thrones.BDRip.mkv
Format : Matroska
Format version : Version 4
File size : 1.37 GiB
Duration : 54 min 10 s
Overall bit rate : 3 629 kb/s
Movie name : s02e05_hevc
Encoded date : UTC 2019-04-12 19:24:54
Writing application : mkvmerge v33.0.0 ('A Little Bit of Madness') 64-bit
Writing library : libebml v1.3.7 + libmatroska v1.5.0
Video
ID : 1
Format : HEVC
Format/Info : High Efficiency Video Coding
Format profile : Main@L4@Main
Codec ID : V_MPEGH/ISO/HEVC
Duration : 54 min 10 s
Bit rate : 3 243 kb/s
Width : 1 920 pixels
Height : 1 080 pixels
Display aspect ratio : 16:9
Frame rate mode : Constant
Frame rate : 23.976 (24000/1001) FPS
Standard : Component
Color space : YUV
Chroma subsampling : 4:2:0
Bit depth : 8 bits
Bits/(Pixel*Frame) : 0.065
Stream size : 1.23 GiB (89%)
Title : s02e05_hevc
Default : Yes
Forced : No
Color range : Limited
Audio #1
ID : 2
Format : AC-3
Format/Info : Audio Coding 3
Commercial name : Dolby Digital
Codec ID : A_AC3
Duration : 54 min 10 s
Bit rate mode : Constant
Bit rate : 192 kb/s
Channel(s) : 2 channels
Channel layout : L R
Sampling rate : 48.0 kHz
Frame rate : 31.250 FPS (1536 SPF)
Bit depth : 16 bits
Compression mode : Lossy
Stream size : 74.4 MiB (5%)
Title : Dub Ru
Language : Russian
Service kind : Complete Main
Default : Yes
Forced : Yes
Audio #2
ID : 3
Format : AC-3
Format/Info : Audio Coding 3
Commercial name : Dolby Digital
Codec ID : A_AC3
Duration : 54 min 10 s
Bit rate mode : Constant
Bit rate : 192 kb/s
Channel(s) : 2 channels
Channel layout : L R
Sampling rate : 48.0 kHz
Frame rate : 31.250 FPS (1536 SPF)
Bit depth : 16 bits
Compression mode : Lossy
Stream size : 74.4 MiB (5%)
Title : Original
Language : English
Service kind : Complete Main
Default : No
Forced : No
Text #1
ID : 4
Format : ASS
Codec ID : S_TEXT/ASS
Codec ID/Info : Advanced Sub Station Alpha
Duration : 2 min 19 s
Bit rate : 56 b/s
Count of elements : 13
Compression mode : Lossless
Stream size : 979 Bytes (0%)
Title : Forced
Language : Russian
Default : Yes
Forced : Yes
Text #2
ID : 5
Format : UTF-8
Codec ID : S_TEXT/UTF8
Codec ID/Info : UTF-8 Plain Text
Duration : 52 min 33 s
Bit rate : 125 b/s
Count of elements : 845
Stream size : 48.2 KiB (0%)
Title : Sub Ru
Language : Russian
Default : No
Forced : No
Качество: BDRip 1080p [HEVC, 8bit]
Формат: MKV
Видео кодек: HVC1
Аудио кодек: AC-3
Видео: HVC1 1920x1080 23.976fps 3 221 kb/s
Аудио: Dolby AC3 48000Hz stereo 192kbps 2ch | Rus, Eng
General
Unique ID : 69628345083292432971934761372939130741 (0x3461EE754D9B6D6E7E68512AD2171775)
Complete name : D:\Game.of.Thrones\s03e05.Game.of.Thrones.BDRip.mkv
Format : Matroska
Format version : Version 4
File size : 1.46 GiB
Duration : 57 min 55 s
Overall bit rate : 3 604 kb/s
Movie name : s03e05_hevc
Encoded date : UTC 2019-04-13 09:12:56
Writing application : mkvmerge v33.0.0 ('A Little Bit of Madness') 64-bit
Writing library : libebml v1.3.7 + libmatroska v1.5.0
Video
ID : 1
Format : HEVC
Format/Info : High Efficiency Video Coding
Format profile : Main@L4@Main
Codec ID : V_MPEGH/ISO/HEVC
Duration : 57 min 55 s
Bit rate : 3 221 kb/s
Width : 1 920 pixels
Height : 1 080 pixels
Display aspect ratio : 16:9
Frame rate mode : Constant
Frame rate : 23.976 (24000/1001) FPS
Standard : Component
Color space : YUV
Chroma subsampling : 4:2:0
Bit depth : 8 bits
Bits/(Pixel*Frame) : 0.065
Stream size : 1.30 GiB (89%)
Title : s03e05_hevc
Default : Yes
Forced : No
Color range : Limited
Audio #1
ID : 2
Format : AC-3
Format/Info : Audio Coding 3
Commercial name : Dolby Digital
Codec ID : A_AC3
Duration : 57 min 25 s
Bit rate mode : Constant
Bit rate : 192 kb/s
Channel(s) : 2 channels
Channel layout : L R
Sampling rate : 48.0 kHz
Frame rate : 31.250 FPS (1536 SPF)
Bit depth : 16 bits
Compression mode : Lossy
Stream size : 78.9 MiB (5%)
Title : RenTV
Language : Russian
Service kind : Complete Main
Default : Yes
Forced : Yes
Audio #2
ID : 3
Format : AC-3
Format/Info : Audio Coding 3
Commercial name : Dolby Digital
Codec ID : A_AC3
Duration : 57 min 25 s
Bit rate mode : Constant
Bit rate : 192 kb/s
Channel(s) : 2 channels
Channel layout : L R
Sampling rate : 48.0 kHz
Frame rate : 31.250 FPS (1536 SPF)
Bit depth : 16 bits
Compression mode : Lossy
Stream size : 78.9 MiB (5%)
Title : Original
Language : English
Service kind : Complete Main
Default : No
Forced : No
Text #1
ID : 4
Format : ASS
Codec ID : S_TEXT/ASS
Codec ID/Info : Advanced Sub Station Alpha
Duration : 1 min 28 s
Bit rate : 221 b/s
Count of elements : 23
Compression mode : Lossless
Stream size : 2.39 KiB (0%)
Title : Forced
Language : Russian
Default : Yes
Forced : Yes
Text #2
ID : 5
Format : UTF-8
Codec ID : S_TEXT/UTF8
Codec ID/Info : UTF-8 Plain Text
Duration : 55 min 21 s
Bit rate : 115 b/s
Count of elements : 918
Stream size : 46.7 KiB (0%)
Title : Sub Ru
Language : Russian
Default : No
Forced : No
Качество: BDRip 1080p [HEVC, 8bit]
Формат: MKV
Видео кодек: HVC1
Аудио кодек: AC-3
Видео: HVC1 1920x1080 23.976fps 3 219 kb/s
Аудио: Dolby AC3 48000Hz stereo 192kbps 2ch | Rus, Eng
General
Unique ID : 279764486162356958266406633295939213616 (0xD278AE1CD7F976A111D29FF342F59930)
Complete name : D:\Game.of.Thrones\s04e05.Game.of.Thrones.BDRip.mkv
Format : Matroska
Format version : Version 4
File size : 1.35 GiB
Duration : 53 min 41 s
Overall bit rate : 3 602 kb/s
Movie name : s04e05_hevc
Encoded date : UTC 2019-04-12 15:56:39
Writing application : mkvmerge v32.0.0 ('Astral Progressions') 64-bit
Writing library : libebml v1.3.7 + libmatroska v1.5.0
Video
ID : 1
Format : HEVC
Format/Info : High Efficiency Video Coding
Format profile : Main@L4@Main
Codec ID : V_MPEGH/ISO/HEVC
Duration : 53 min 41 s
Bit rate : 3 219 kb/s
Width : 1 920 pixels
Height : 1 080 pixels
Display aspect ratio : 16:9
Frame rate mode : Constant
Frame rate : 23.976 (24000/1001) FPS
Standard : Component
Color space : YUV
Chroma subsampling : 4:2:0
Bit depth : 8 bits
Bits/(Pixel*Frame) : 0.065
Stream size : 1.21 GiB (89%)
Title : s04e05_hevc
Default : Yes
Forced : No
Color range : Limited
Audio #1
ID : 2
Format : AC-3
Format/Info : Audio Coding 3
Commercial name : Dolby Digital
Codec ID : A_AC3
Duration : 53 min 12 s
Bit rate mode : Constant
Bit rate : 192 kb/s
Channel(s) : 2 channels
Channel layout : L R
Sampling rate : 48.0 kHz
Frame rate : 31.250 FPS (1536 SPF)
Bit depth : 16 bits
Compression mode : Lossy
Stream size : 73.1 MiB (5%)
Title : Dubbing
Language : Russian
Service kind : Complete Main
Default : Yes
Forced : No
Audio #2
ID : 3
Format : AC-3
Format/Info : Audio Coding 3
Commercial name : Dolby Digital
Codec ID : A_AC3
Duration : 53 min 12 s
Bit rate mode : Constant
Bit rate : 192 kb/s
Channel(s) : 2 channels
Channel layout : L R
Sampling rate : 48.0 kHz
Frame rate : 31.250 FPS (1536 SPF)
Bit depth : 16 bits
Compression mode : Lossy
Stream size : 73.1 MiB (5%)
Title : Original
Language : English
Service kind : Complete Main
Default : No
Forced : No
Text
ID : 4
Format : UTF-8
Codec ID : S_TEXT/UTF8
Codec ID/Info : UTF-8 Plain Text
Duration : 50 min 11 s
Bit rate : 97 b/s
Count of elements : 699
Stream size : 35.7 KiB (0%)
Title : Subs
Language : English
Default : Yes
Forced : No
Качество: BDRip 1080p [HEVC, 8bit]
Формат: MKV
Видео кодек: HVC1
Аудио кодек: AC-3
Видео: HVC1 1920x1080 23.976fps 3 247 kb/s
Аудио: Dolby AC3 48000Hz stereo 192kbps 2ch | Rus, Eng
General
Unique ID : 6199875959430868202453217034713523704 (0x4AA0D7C2F92D0D2E094CD4319A965F8)
Complete name : D:\Game.of.Thrones\s05e05.Game.of.Thrones.BDRip.mkv
Format : Matroska
Format version : Version 4
File size : 1.44 GiB
Duration : 56 min 42 s
Overall bit rate : 3 634 kb/s
Movie name : s05e05_hevc
Encoded date : UTC 2019-04-12 05:19:36
Writing application : mkvmerge v32.0.0 ('Astral Progressions') 64-bit
Writing library : libebml v1.3.7 + libmatroska v1.5.0
Video
ID : 1
Format : HEVC
Format/Info : High Efficiency Video Coding
Format profile : Main@L4@Main
Codec ID : V_MPEGH/ISO/HEVC
Duration : 56 min 42 s
Bit rate : 3 247 kb/s
Width : 1 920 pixels
Height : 1 080 pixels
Display aspect ratio : 16:9
Frame rate mode : Constant
Frame rate : 23.976 (24000/1001) FPS
Standard : Component
Color space : YUV
Chroma subsampling : 4:2:0
Bit depth : 8 bits
Bits/(Pixel*Frame) : 0.065
Stream size : 1.29 GiB (89%)
Title : s05e05_hevc
Default : Yes
Forced : No
Color range : Limited
Audio #1
ID : 2
Format : AC-3
Format/Info : Audio Coding 3
Commercial name : Dolby Digital
Codec ID : A_AC3
Duration : 56 min 42 s
Bit rate mode : Constant
Bit rate : 192 kb/s
Channel(s) : 2 channels
Channel layout : L R
Sampling rate : 48.0 kHz
Frame rate : 31.250 FPS (1536 SPF)
Bit depth : 16 bits
Compression mode : Lossy
Stream size : 77.9 MiB (5%)
Title : Dub Ru
Language : Russian
Service kind : Complete Main
Default : Yes
Forced : Yes
Audio #2
ID : 3
Format : AC-3
Format/Info : Audio Coding 3
Commercial name : Dolby Digital
Codec ID : A_AC3
Duration : 56 min 42 s
Bit rate mode : Constant
Bit rate : 192 kb/s
Channel(s) : 2 channels
Channel layout : L R
Sampling rate : 48.0 kHz
Frame rate : 31.250 FPS (1536 SPF)
Bit depth : 16 bits
Compression mode : Lossy
Stream size : 77.9 MiB (5%)
Title : Original
Language : English
Service kind : Complete Main
Default : No
Forced : No
Text #1
ID : 4
Format : UTF-8
Codec ID : S_TEXT/UTF8
Codec ID/Info : UTF-8 Plain Text
Duration : 51 min 50 s
Bit rate : 81 b/s
Count of elements : 644
Stream size : 30.8 KiB (0%)
Title : Sub Ru
Language : Russian
Default : No
Forced : No
Text #2
ID : 5
Format : ASS
Codec ID : S_TEXT/ASS
Codec ID/Info : Advanced Sub Station Alpha
Duration : 42 min 57 s
Bit rate : 4 b/s
Count of elements : 26
Compression mode : Lossless
Stream size : 1.37 KiB (0%)
Title : Forced
Language : Russian
Default : Yes
Forced : Yes
Качество: BDRip 1080p [HEVC, 8bit]
Формат: MKV
Видео кодек: HVC1
Аудио кодек: AC-3
Видео: HVC1 1920x1080 23.976fps 3 261 kb/s
Аудио: Dolby AC3 48000Hz stereo 192kbps 2ch | Rus, Eng
General
Unique ID : 130578994284325956351756168800935260375 (0x623C997A24CB0B4F4A906A41C696B0D7)
Complete name : D:\Game.of.Thrones\s06e05.Game.of.Thrones.BDRip.mkv
Format : Matroska
Format version : Version 4
File size : 1.52 GiB
Duration : 56 min 48 s
Overall bit rate : 3 839 kb/s
Movie name : s06e05_hevc
Encoded date : UTC 2019-04-12 12:27:21
Writing application : mkvmerge v32.0.0 ('Astral Progressions') 64-bit
Writing library : libebml v1.3.7 + libmatroska v1.5.0
Video
ID : 1
Format : HEVC
Format/Info : High Efficiency Video Coding
Format profile : Main@L4@Main
Codec ID : V_MPEGH/ISO/HEVC
Duration : 56 min 48 s
Bit rate : 3 261 kb/s
Width : 1 920 pixels
Height : 1 080 pixels
Display aspect ratio : 16:9
Frame rate mode : Constant
Frame rate : 23.976 (24000/1001) FPS
Standard : Component
Color space : YUV
Chroma subsampling : 4:2:0
Bit depth : 8 bits
Bits/(Pixel*Frame) : 0.066
Stream size : 1.29 GiB (85%)
Title : s06e05_hevc
Default : Yes
Forced : No
Color range : Limited
Audio #1
ID : 2
Format : AC-3
Format/Info : Audio Coding 3
Commercial name : Dolby Digital
Codec ID : A_AC3
Duration : 56 min 48 s
Bit rate mode : Constant
Bit rate : 192 kb/s
Channel(s) : 2 channels
Channel layout : L R
Sampling rate : 48.0 kHz
Frame rate : 31.250 FPS (1536 SPF)
Bit depth : 16 bits
Compression mode : Lossy
Stream size : 78.0 MiB (5%)
Title : Dub Ru
Language : Russian
Service kind : Complete Main
Default : Yes
Forced : Yes
Audio #2
ID : 3
Format : AC-3
Format/Info : Audio Coding 3
Commercial name : Dolby Digital
Codec ID : A_AC3
Duration : 56 min 48 s
Bit rate mode : Constant
Bit rate : 384 kb/s
Channel(s) : 6 channels
Channel layout : L R C LFE Ls Rs
Sampling rate : 48.0 kHz
Frame rate : 31.250 FPS (1536 SPF)
Bit depth : 16 bits
Compression mode : Lossy
Stream size : 156 MiB (10%)
Title : Original
Language : English
Service kind : Complete Main
Default : No
Forced : Yes
Text #1
ID : 4
Format : ASS
Codec ID : S_TEXT/ASS
Codec ID/Info : Advanced Sub Station Alpha
Duration : 31 min 38 s
Bit rate : 2 b/s
Count of elements : 8
Compression mode : Lossless
Stream size : 570 Bytes (0%)
Title : Forced
Language : Russian
Default : Yes
Forced : Yes
Text #2
ID : 5
Format : UTF-8
Codec ID : S_TEXT/UTF8
Codec ID/Info : UTF-8 Plain Text
Duration : 53 min 46 s
Bit rate : 86 b/s
Count of elements : 648
Stream size : 34.0 KiB (0%)
Title : Sub Ru
Language : Russian
Default : No
Forced : No
Качество: BDRip 1080p [HEVC, 8bit]
Формат: MKV
Видео кодек: HVC1
Аудио кодек: AC-3
Видео: HVC1 1920x1080 23.976fps 3 262 kb/s
Аудио: Dolby AC3 48000Hz stereo 192kbps 2ch | Rus, Eng
General
Unique ID : 153358554915900846610047961710907027521 (0x735FC88744FDFEF1CB7F0B7C5276F041)
Complete name : D:\Game.of.Thrones\s07e05.Game.of.Thrones.BDRip.mkv
Format : Matroska
Format version : Version 4
File size : 1.49 GiB
Duration : 58 min 40 s
Overall bit rate : 3 639 kb/s
Movie name : s07e05_hevc
Encoded date : UTC 2019-04-13 11:56:12
Writing application : mkvmerge v33.0.0 ('A Little Bit of Madness') 64-bit
Writing library : libebml v1.3.7 + libmatroska v1.5.0
Video
ID : 1
Format : HEVC
Format/Info : High Efficiency Video Coding
Format profile : Main@L4@Main
Codec ID : V_MPEGH/ISO/HEVC
Duration : 58 min 30 s
Bit rate : 3 262 kb/s
Width : 1 920 pixels
Height : 1 080 pixels
Display aspect ratio : 16:9
Frame rate mode : Constant
Frame rate : 23.976 (24000/1001) FPS
Standard : Component
Color space : YUV
Chroma subsampling : 4:2:0
Bit depth : 8 bits
Bits/(Pixel*Frame) : 0.066
Stream size : 1.33 GiB (89%)
Title : s07e05_hevc
Default : Yes
Forced : No
Color range : Limited
Audio #1
ID : 2
Format : AC-3
Format/Info : Audio Coding 3
Commercial name : Dolby Digital
Codec ID : A_AC3
Duration : 58 min 30 s
Bit rate mode : Constant
Bit rate : 192 kb/s
Channel(s) : 2 channels
Channel layout : L R
Sampling rate : 48.0 kHz
Frame rate : 31.250 FPS (1536 SPF)
Bit depth : 16 bits
Compression mode : Lossy
Stream size : 80.4 MiB (5%)
Title : Dub Ru
Language : Russian
Service kind : Complete Main
Default : Yes
Forced : Yes
Audio #2
ID : 3
Format : AC-3
Format/Info : Audio Coding 3
Commercial name : Dolby Digital
Codec ID : A_AC3
Duration : 58 min 40 s
Bit rate mode : Constant
Bit rate : 192 kb/s
Channel(s) : 2 channels
Channel layout : L R
Sampling rate : 48.0 kHz
Frame rate : 31.250 FPS (1536 SPF)
Bit depth : 16 bits
Compression mode : Lossy
Stream size : 80.6 MiB (5%)
Title : Original
Language : English
Service kind : Complete Main
Default : No
Forced : No
Text #1
ID : 4
Format : ASS
Codec ID : S_TEXT/ASS
Codec ID/Info : Advanced Sub Station Alpha
Duration : 12 s 260 ms
Bit rate : 120 b/s
Count of elements : 2
Compression mode : Lossless
Stream size : 184 Bytes (0%)
Title : Forced
Language : Russian
Default : Yes
Forced : Yes
Text #2
ID : 5
Format : UTF-8
Codec ID : S_TEXT/UTF8
Codec ID/Info : UTF-8 Plain Text
Duration : 54 min 19 s
Bit rate : 94 b/s
Count of elements : 678
Stream size : 37.4 KiB (0%)
Title : Sub Ru
Language : Russian
Default : No
Forced : No
Качество: WEB-DL 1080p
Формат: MKV
Видео кодек: HVC1
Аудио кодек: AC-3
Видео: HVC1 1920x1080 23.976fps 3 357 kb/s
Аудио: Dolby AC3 48000Hz stereo 192kbps 2ch | Rus, Eng
General
Unique ID : 147813083601438120413380955777274508442 (0x6F33C3AEEEF579766E0CE74B18E8749A)
Complete name : D:\Game.of.Thrones\s08e02.Game.of.Thrones.WEB-DL.mkv
Format : Matroska
Format version : Version 4
File size : 1.55 GiB
Duration : 59 min 11 s
Overall bit rate : 3 744 kb/s
Movie name : s08e02.Game.of.Thrones
Track name/Position : 2
Track name/Total : 6
Description : Jaime faces judgement and Winterfell prepares for the battle to come.
Released date : UTC 2019-04-21 21:00:00
Encoded date : UTC 2019-04-29 08:59:13
Writing application : mkvmerge v33.0.0 ('A Little Bit of Madness') 64-bit
Writing library : libebml v1.3.7 + libmatroska v1.5.0 / Lavf58.12.100
Copyright : EniaHD
Video
ID : 1
Format : HEVC
Format/Info : High Efficiency Video Coding
Format profile : Main@L4@Main
Codec ID : V_MPEGH/ISO/HEVC
Duration : 59 min 11 s
Bit rate : 3 357 kb/s
Width : 1 920 pixels
Height : 1 080 pixels
Display aspect ratio : 16:9
Frame rate mode : Constant
Frame rate : 23.976 (24000/1001) FPS
Standard : Component
Color space : YUV
Chroma subsampling : 4:2:0
Bit depth : 8 bits
Bits/(Pixel*Frame) : 0.068
Stream size : 1.39 GiB (90%)
Title : s08e02.Game.of.Thrones
Default : Yes
Forced : No
Color range : Limited
Audio #1
ID : 2
Format : AC-3
Format/Info : Audio Coding 3
Commercial name : Dolby Digital
Codec ID : A_AC3
Duration : 59 min 11 s
Bit rate mode : Constant
Bit rate : 192 kb/s
Channel(s) : 2 channels
Channel layout : L R
Sampling rate : 48.0 kHz
Frame rate : 31.250 FPS (1536 SPF)
Bit depth : 16 bits
Compression mode : Lossy
Stream size : 81.3 MiB (5%)
Title : Dubbing RU
Language : Russian
Service kind : Complete Main
Default : Yes
Forced : Yes
Audio #2
ID : 3
Format : AC-3
Format/Info : Audio Coding 3
Commercial name : Dolby Digital
Codec ID : A_AC3
Duration : 59 min 11 s
Bit rate mode : Constant
Bit rate : 192 kb/s
Channel(s) : 2 channels
Channel layout : L R
Sampling rate : 48.0 kHz
Frame rate : 31.250 FPS (1536 SPF)
Bit depth : 16 bits
Compression mode : Lossy
Delay relative to video : 24 ms
Stream size : 81.3 MiB (5%)
Title : Original
Language : English
Service kind : Complete Main
Default : No
Forced : No
Text #1
ID : 4
Format : UTF-8
Codec ID : S_TEXT/UTF8
Codec ID/Info : UTF-8 Plain Text
Duration : 58 min 21 s
Bit rate : 2 b/s
Count of elements : 23
Stream size : 1.08 KiB (0%)
Title : Forced
Language : Russian
Default : Yes
Forced : Yes
Text #2
ID : 5
Format : UTF-8
Codec ID : S_TEXT/UTF8
Codec ID/Info : UTF-8 Plain Text
Duration : 58 min 28 s
Bit rate : 70 b/s
Count of elements : 679
Stream size : 30.3 KiB (0%)
Title : Subs Ru
Language : Russian
Default : No
Forced : No

Release was prepared by RG Serials

If your ratio falls below 0.3, you will not be able to download Torrents! More about the rating.

[toptorrent.pw].t5852.torrent
Torrent: Registered [ 2019-05-27 16:37 ] · 375BC7DCEA7C3D1C9B82CC69FBE81AB4B3B57AFC

Download .torrent

Download

541 KB

Status: checked
Completed: 0 times
Size: 107.12 GB
Rate: 
(Vote: 4)
Has thanked: 4  Thanks   (List)
terms.php
Display posts:    
Reply to topic

Current time is: 20-Jul 00:02

All times are UTC + 5



You cannot post new topics in this forum
You cannot reply to topics in this forum
You cannot edit your posts in this forum
You cannot delete your posts in this forum
You cannot vote in polls in this forum
You cannot attach files in this forum
You can download files in this forum