Море соблазна / Serenity (Стивен Найт) [2019 г., Фантастика, триллер, драма, BDRip] DUB [iTunes]

Reply to topic
 
Author Message

_Deimos_ ®

VIP пользователь

Gender: Male

Longevity: 1 year 3 months

Posts: 320

Карма: 33000 [+]

Location: Топторрент

Наличие запрета:

[Profile] [PM]

Post 04-May-2019 12:48

[Quote]

Море соблазна / Serenity- --Год выпуска: 2019
Страна: США
Жанр: Фантастика, триллер, драма
Продолжительность: 01:46:01
Перевод: Дублированный [iTunes]--Режиссёр: Стивен Найт--В ролях: Мэттью МакКонахи, Энн Хэтэуэй, Дайан Лэйн, Джейсон Кларк, Джимон Хонсу, Джереми Стронг, Шарлотта Батлер, Дэвид Батлер, Рафаэль Сайех, Майкл Ричард-- : Палящее солнце Карибских островов, верный корабль и жизнь, полная риска - его стихия. Единственная женщина, которую он любил, вышла замуж за миллиардера и живет на вилле в Майами. Неожиданно она вновь появляется в его жизни и умоляет о защите. С этой минуты знакомые воды превратятся в море соблазна...-- Качество: BDRip
Формат видео: AVI
Видео: Xvid, 720x304, 23.976 fps, 1516 kb/s
Аудио: AC3, 48.0 kHz, 6 channels, 384 kb/s--

Рейтинг фильма --
General
Complete name : G:\Kino\Serenity.2019.BDRip.1.42Gb.D.MegaPeer.avi
Format : AVI
Format/Info : Audio Video Interleave
File size : 1.41 GiB
Duration : 1 h 46 min
Overall bit rate : 1 909 kb/s
Writing application : VirtualDubMod 1.5.10.3 | www.virtualdub-fr.org || (build 2550/release)
Writing library : VirtualDubMod build 2550/release
Video
ID : 0
Format : MPEG-4 Visual
Format profile : Advanced Simple@L5
Format settings, BVOP : 1
Format settings, QPel : No
Format settings, GMC : No warppoints
Format settings, Matrix : Custom
Codec ID : XVID
Codec ID/Hint : XviD
Duration : 1 h 46 min
Bit rate : 1 516 kb/s
Width : 720 pixels
Height : 304 pixels
Display aspect ratio : 2.35:1
Frame rate : 23.976 (24000/1001) FPS
Color space : YUV
Chroma subsampling : 4:2:0
Bit depth : 8 bits
Scan type : Progressive
Compression mode : Lossy
Bits/(Pixel*Frame) : 0.289
Stream size : 1.12 GiB (79%)
Writing library : XviD 73
Audio
ID : 1
Format : AC-3
Format/Info : Audio Coding 3
Format settings, Endianness : Big
Codec ID : 2000
Duration : 1 h 45 min
Bit rate mode : Constant
Bit rate : 384 kb/s
Channel(s) : 6 channels
Channel positions : Front: L C R, Side: L R, LFE
Sampling rate : 48.0 kHz
Frame rate : 31.250 FPS (1536 SPF)
Bit depth : 16 bits
Compression mode : Lossy
Stream size : 291 MiB (20%)
Alignment : Split accross interleaves
Interleave, duration : 42 ms (1.00 video frame)
Interleave, preload duration : 500 ms
Service kind : Complete Main

Release was prepared by RG Cinema

Display posts:    
Reply to topic

Current time is: 20-May 18:23

All times are UTC + 5



You cannot post new topics in this forum
You cannot reply to topics in this forum
You cannot edit your posts in this forum
You cannot delete your posts in this forum
You cannot vote in polls in this forum
You cannot attach files in this forum
You cannot download files in this forum