Очень странные дела / Stranger Things / Сезон 1 / Серии 1-8 из 8 (Мэтт Даффер, Росс Даффер, Шон Леви) [2016 г, Ужасы, Фантастика, Фэнтези, Триллер, BDRip 1080p, HEVC, 10bit] DUB (Пифагор) + MVO (Jackier, LostFilm, NewStudio) + Original + Sub Rus, Eng

Reply to topic
DL-List and Torrent activity
Size:  31.68 GB   |    Registered:  2 months 12 days   |    Completed:  0 times
Seeders:  1  [  0 KB/s  ]   Show peers in full details
 
 
 
 
Author Message

.:Mercury:. ®

Gender: Male

Longevity: 1 year 5 months

Posts: 3405

Карма: 31947 [+]

Наличие запрета:

[Profile] [PM]

Post 07-May-2019 10:31

[Quote]

Очень странные дела / Stranger Things- -Год выпуска: 2016
Страна: США
Жанр: Ужасы, Фантастика, Фэнтези, Триллер
Продолжительность: 06:34:56
Перевод:
Профессиональный (полное дублирование) Пифагор
Профессиональный (Многоголосый, закадровый) Jackier, LostFilm, NewStudio--Режиссер: Мэтт Даффер, Росс Даффер, Шон Леви--В ролях:
Вайнона Райдер, Дэвид Харбор, Финн Вулфард, Милли Бобби Браун, Гейтен Матараццо, Калеб МакЛафлин, Наталия Дайер, Чарли Хитон, Кара Буоно, Джо Кири--Описание:
Действие сериала разворачивается в 80-х годах в тихом провинциальном городке. Благоприятное течение местной жизни нарушает загадочное исчезновение подростка по имени Уилл. Выяснить обстоятельства дела полны решимости родные мальчика и местный шериф. Также события затрагивают лучшего друга Уилла — Майка. Он начинает собственное расследование. Майк уверен, что близок к разгадке, и теперь ему предстоит оказаться в эпицентре ожесточенной битвы потусторонних сил.
--
S01E001. Часть первая. Исчезновение Уилла Байерса
S01E002. Часть вторая. Психичка на Мэйпл-стрит
S01E003. Часть третья. Рождественские огни
S01E004. Часть четвёртая. Тело
S01E005. Часть пятая. Блоха и акробат
S01E006. Часть шестая. Монстр
S01E007. Часть седьмая. Ванна
S01E008. Часть восьмая. По ту сторону
Качество: BDRip 1080p [HEVC, 10bit]
Формат: MKV
Видео кодек: H.265
Аудио кодек: AC3
Видео: HVC1 1920x960 23.976fps 10 bits 8 722 kb/s
Аудио#1: Dolby AC3 48000Hz 6ch 640kbps | DUB, Пифагор
Аудио#2: Dolby AC3 48000Hz 6ch 640kbps | MVO, Jacker
Аудио#3: Dolby AC3 48000Hz 6ch 640kbps | MVO, LostFilm
Аудио#4: Dolby AC3 48000Hz 6ch 640kbps | MVO, NewStudio
Аудио#5: Dolby AC3 48000Hz 6ch 640kbps | Original
Субтитры: Русские полные и форсированные (SRT), English full (SRT)
General
Unique ID : 293892397885478773704302682777819939079 (0xDD199DF0894477A83AACAB956DB60107)
Complete name : F:\Restored\Очень странные дела S01\S01E004. Часть четвёртая. Тело.mkv
Format : Matroska
Format version : Version 4
File size : 4.03 GiB
Duration : 49 min 27 s
Overall bit rate : 11.7 Mb/s
Movie name : Часть четвёртая. Тело
Track name/Position : 4/25
Description : Оди доказывает друзьям, что Уилл всё ещё жив, установив с ним контакт через рацию Майка. Используя мощную радиостанцию в кабинете физики, Оди и друзья слышат голос Уилла, говорящего своей матери, что он боится. В это время Джойс находится в комнает Уилла и слышит его голос из-за стены. Она срывает обои и обнаруживает под ними плёнку из странной полупрозрачной субстанции и силуэт Уилла за ней. Джойс начинает пробивать стену топором, но лишь пробивает сквозную дыру на улицу. Изучая сделанную Джонатаном фотографию Барб, Нэнси замечает рядом с ней чудовище. Она отправляется к Джонатану, он печатает увеличенный фрагмент снимка и осознаёт, что существо на снимке похоже на то, что описывала Джойс — человекоподобное тело с длинными руками и головой без лица. Хоппер находит обстоятельства обнаружения тела Уилла странными, приходит в морг и разрезает тело, которое оказывается качественно сделанным манекеном. Он направляется к зданию лаборатории и проникает внутрь.
Encoded date : UTC 2019-05-05 05:47:40
Writing application : mkvmerge v33.0.0 ('A Little Bit of Madness') 64-bit
Writing library : libebml v1.3.7 + libmatroska v1.5.0 / Lavf57.71.100
Comment : Rip by OldGamer
Attachments : poster.jpg / backdrop.jpg
ACTORS : Winona Ryder, David Harbour, Noah Schnapp, Millie Bobby Brown, Finn Wolfhard, Natalia Dyer, Charlie Heaton, Matthew Modine, Joe Keery, Gaten Matarazzo, Caleb McLaughlin, Cara Buono, Sadie Sink, Dacre Montgomery, Maya Hawke, Randy Havens
ALBUM : Очень странные дела, Сезон 1-3
COMPOSER : Kyle Dixon
COUNTRY : United States
DATE : 2016-07-15
ENCODING_INFO : MATROSKA,WEBM > MKV / H264 > X265 CRF 19.0 Very Slow / AC3 > COPY Безопасное / DTS-HD MA > AC3 CBR 864kbps / DTS-HD MA > AC3 CBR 864kbps / AC3 > COPY Безопасное / AC3 > COPY Безопасное
EPISODE_SORT : 4
GENRE : Драма, Детектив, Нф И Фэнтези
HD_VIDEO : 1
ITUNEXTC : ru-movie|16+|375|
Language : und
MEDIA_TYPE : 10
NETWORK : Netflix
PRODUCER : Ross Duffer, Matt Duffer
PUBLISHER : 21 Laps Entertainment
RATING : 8.30
SEASON_NUMBER : 1
SHOW : Очень странные дела
WRITER : Ross Duffer, Matt Duffer
Video
ID : 1
Format : HEVC
Format/Info : High Efficiency Video Coding
Format profile : Main 10@L4.1@High
Codec ID : V_MPEGH/ISO/HEVC
Duration : 49 min 27 s
Bit rate : 8 722 kb/s
Width : 1 920 pixels
Height : 960 pixels
Display aspect ratio : 2.000
Frame rate mode : Constant
Frame rate : 23.976 (24000/1001) FPS
Color space : YUV
Chroma subsampling : 4:2:0
Bit depth : 10 bits
Bits/(Pixel*Frame) : 0.197
Stream size : 3.01 GiB (75%)
Title : Stranger Things 1x04 (2016) / Rip by OldGamer
Writing library : x265 2.9+9-f74003e88622:[Mac OS X][clang 10.0.0][64 bit] 10bit
Encoding settings : cpuid=1111039 / frame-threads=14 / wpp / no-pmode / no-pme / no-psnr / no-ssim / log-level=3 / input-csp=1 / input-res=1920x960 / interlace=0 / total-frames=0 / level-idc=41 / high-tier=1 / uhd-bd=0 / ref=5 / allow-non-conformance / no-repeat-headers / annexb / no-aud / no-hrd / info / hash=0 / no-temporal-layers / open-gop / min-keyint=23 / keyint=240 / gop-lookahead=0 / bframes=16 / b-adapt=2 / b-pyramid / bframe-bias=0 / rc-lookahead=60 / lookahead-slices=6 / scenecut=40 / radl=0 / no-intra-refresh / ctu=64 / min-cu-size=8 / rect / amp / max-tu-size=32 / tu-inter-depth=4 / tu-intra-depth=4 / limit-tu=1 / rdoq-level=2 / dynamic-rd=0.00 / no-ssim-rd / signhide / no-tskip / nr-intra=0 / nr-inter=0 / no-constrained-intra / no-strong-intra-smoothing / max-merge=5 / limit-refs=2 / no-limit-modes / me=3 / subme=7 / merange=57 / temporal-mvp / weightp / weightb / no-analyze-src-pics / deblock=-3:-3 / no-sao / no-sao-non-deblock / rd=6 / no-early-skip / rskip / no-fast-intra / no-tskip-fast / no-cu-lossless / no-b-intra / no-splitrd-skip / rdpenalty=0 / psy-rd=2.00 / psy-rdoq=1.00 / no-rd-refine / no-lossless / cbqpoffs=0 / crqpoffs=0 / rc=crf / crf=19.0 / qcomp=0.60 / qpstep=4 / stats-write=0 / stats-read=0 / vbv-maxrate=50000 / vbv-bufsize=50000 / vbv-init=0.9 / crf-max=0.0 / crf-min=0.0 / ipratio=1.40 / pbratio=1.30 / aq-mode=2 / aq-strength=0.80 / no-cutree / zone-count=0 / no-strict-cbr / qg-size=32 / no-rc-grain / qpmax=69 / qpmin=0 / no-const-vbv / sar=1 / overscan=0 / videoformat=5 / range=0 / colorprim=2 / transfer=2 / colormatrix=2 / chromaloc=0 / display-window=0 / max-cll=0,0 / min-luma=0 / max-luma=1023 / log2-max-poc-lsb=8 / vui-timing-info / vui-hrd-info / slices=1 / no-opt-qp-pps / no-opt-ref-list-length-pps / no-multi-pass-opt-rps / scenecut-bias=0.00 / no-opt-cu-delta-qp / aq-motion / no-hdr / no-hdr-opt / no-dhdr10-opt / no-idr-recovery-sei / analysis-reuse-level=5 / scale-factor=0 / refine-intra=0 / refine-inter=0 / refine-mv=0 / no-limit-sao / ctu-info=0 / no-lowpass-dct / refine-mv-type=0 / copy-pic=1 / max-ausize-factor=1.0 / no-dynamic-refine / no-single-sei
Language : English
Default : Yes
Forced : No
Color range : Limited
Audio #1
ID : 2
Format : AC-3
Format/Info : Audio Coding 3
Commercial name : Dolby Digital
Codec ID : A_AC3
Duration : 49 min 27 s
Bit rate mode : Constant
Bit rate : 640 kb/s
Channel(s) : 6 channels
Channel layout : L R C LFE Ls Rs
Sampling rate : 48.0 kHz
Frame rate : 31.250 FPS (1536 SPF)
Bit depth : 16 bits
Compression mode : Lossy
Stream size : 226 MiB (5%)
Title : DUB (Пифагор)
Language : Russian
Service kind : Complete Main
Default : Yes
Forced : No
Audio #2
ID : 3
Format : AC-3
Format/Info : Audio Coding 3
Commercial name : Dolby Digital
Codec ID : A_AC3
Duration : 49 min 27 s
Bit rate mode : Constant
Bit rate : 640 kb/s
Channel(s) : 6 channels
Channel layout : L R C LFE Ls Rs
Sampling rate : 48.0 kHz
Frame rate : 31.250 FPS (1536 SPF)
Bit depth : 16 bits
Compression mode : Lossy
Stream size : 226 MiB (5%)
Title : MVO (Jaskier)
Language : Russian
Service kind : Complete Main
Default : No
Forced : No
Audio #3
ID : 4
Format : AC-3
Format/Info : Audio Coding 3
Commercial name : Dolby Digital
Codec ID : A_AC3
Duration : 49 min 27 s
Bit rate mode : Constant
Bit rate : 640 kb/s
Channel(s) : 6 channels
Channel layout : L R C LFE Ls Rs
Sampling rate : 48.0 kHz
Frame rate : 31.250 FPS (1536 SPF)
Bit depth : 16 bits
Compression mode : Lossy
Stream size : 226 MiB (5%)
Title : MVO (LostFilm)
Language : Russian
Service kind : Complete Main
Default : No
Forced : No
Audio #4
ID : 5
Format : AC-3
Format/Info : Audio Coding 3
Commercial name : Dolby Digital
Codec ID : A_AC3
Duration : 49 min 27 s
Bit rate mode : Constant
Bit rate : 384 kb/s
Channel(s) : 6 channels
Channel layout : L R C LFE Ls Rs
Sampling rate : 48.0 kHz
Frame rate : 31.250 FPS (1536 SPF)
Bit depth : 16 bits
Compression mode : Lossy
Stream size : 136 MiB (3%)
Title : MVO (NewStudio)
Language : Russian
Service kind : Complete Main
Default : No
Forced : No
Audio #5
ID : 6
Format : AC-3
Format/Info : Audio Coding 3
Commercial name : Dolby Digital
Codec ID : A_AC3
Duration : 49 min 27 s
Bit rate mode : Constant
Bit rate : 640 kb/s
Channel(s) : 6 channels
Channel layout : L R C LFE Ls Rs
Sampling rate : 48.0 kHz
Frame rate : 31.250 FPS (1536 SPF)
Bit depth : 16 bits
Compression mode : Lossy
Stream size : 226 MiB (5%)
Title : Original
Language : English
Service kind : Complete Main
Default : No
Forced : No
Text #1
ID : 7
Format : UTF-8
Codec ID : S_TEXT/UTF8
Codec ID/Info : UTF-8 Plain Text
Duration : 47 min 32 s
Bit rate : 73 b/s
Count of elements : 648
Stream size : 25.7 KiB (0%)
Title : NetFlix
Language : Russian
Default : No
Forced : No
Text #2
ID : 8
Format : UTF-8
Codec ID : S_TEXT/UTF8
Codec ID/Info : UTF-8 Plain Text
Duration : 36 min 47 s
Bit rate : 0 b/s
Count of elements : 4
Stream size : 206 Bytes (0%)
Title : Forced
Language : Russian
Default : No
Forced : No
Text #3
ID : 9
Format : UTF-8
Codec ID : S_TEXT/UTF8
Codec ID/Info : UTF-8 Plain Text
Duration : 47 min 32 s
Bit rate : 72 b/s
Count of elements : 648
Stream size : 25.3 KiB (0%)
Title : Full
Language : Russian
Default : No
Forced : No
Text #4
ID : 10
Format : UTF-8
Codec ID : S_TEXT/UTF8
Codec ID/Info : UTF-8 Plain Text
Duration : 46 min 57 s
Bit rate : 88 b/s
Count of elements : 663
Stream size : 30.6 KiB (0%)
Title : Alesandra
Language : Russian
Default : No
Forced : No
Text #5
ID : 11
Format : UTF-8
Codec ID : S_TEXT/UTF8
Codec ID/Info : UTF-8 Plain Text
Duration : 46 min 52 s
Bit rate : 53 b/s
Count of elements : 662
Stream size : 18.5 KiB (0%)
Title : Original
Language : English
Default : No
Forced : No
Text #6
ID : 12
Format : UTF-8
Codec ID : S_TEXT/UTF8
Codec ID/Info : UTF-8 Plain Text
Duration : 47 min 52 s
Bit rate : 61 b/s
Count of elements : 745
Stream size : 21.5 KiB (0%)
Title : Original (SDH)
Language : English
Default : No
Forced : No
Menu
00:00:00.000 : :Chapter 1
00:05:34.250 : :Chapter 2
00:07:46.841 : :Chapter 3
00:10:10.860 : :Chapter 4
00:14:30.077 : :Chapter 5
00:20:57.256 : :Chapter 6
00:25:11.635 : :Chapter 7
00:30:04.803 : :Chapter 8
00:37:05.056 : :Chapter 9
00:42:29.463 : :Chapter 10
00:48:06.466 : :Chapter 11

Release was prepared by RG Serials

If your ratio falls below 0.3, you will not be able to download Torrents! More about the rating.

[toptorrent.pw].t5866.torrent
Torrent: Registered [ 2019-05-07 10:31 ] · 8F8CE5F71EF9FE55C13500F71776877144E2FC1C

Download .torrent

Download

81 KB

Status: checked
Completed: 0 times
Size: 31.68 GB
Rate: 
(Vote: 0)
Has thanked: 1  Thanks   (List)
terms.php
Display posts:    
Reply to topic

Current time is: 20-Jul 05:47

All times are UTC + 5



You cannot post new topics in this forum
You cannot reply to topics in this forum
You cannot edit your posts in this forum
You cannot delete your posts in this forum
You cannot vote in polls in this forum
You cannot attach files in this forum
You can download files in this forum