Мастер Z: Наследие Ип Мана / Ye wen wai zhuan: Zhang tian zhi / Master Z: Ip Man Legacy (Юэнь Ву-Пин) [2018г., Боевик, BDRip] MVO

Reply to topic
DL-List and Torrent activity
Size:  1.37 GB   |    Registered:  12 days   |    Completed:  0 times
Seeders:  1  [  0 KB/s  ]   Show peers in full details
 
 
 
 
Author Message

_Deimos_ ®

VIP пользователь

Gender: Male

Longevity: 1 year 3 months

Posts: 320

Карма: 33000 [+]

Location: Топторрент

Наличие запрета:

[Profile] [PM]

Post 08-May-2019 08:45

[Quote]

Мастер Z: Наследие Ип Мана / Ye wen wai zhuan: Zhang tian zhi-
--Год выпуска: 2018
Страна: Китай, Гонконг
Жанр: Боевик
Продолжительность: 01:47:35
Перевод: Профессиональный многоголосый [HDRezka Studio]--Режиссёр: Юэнь Ву-Пин--В ролях: Макс Чжан, Дэйв Батиста, Мишель Йео, Тони Джа, Крисси Чау, Кевин Чэн, Син Юй, Филип Кюн-- : После проигранного поединка Ип Ману, Чонг Тин Чи принимает решение закрыть академию боевых искусств, чтобы вести простую жизнь владельца маленького продуктового магазина. Но вскоре Чонг сталкивается с очередными неприятностями, когда спасает девушку от банды головорезов, которые подчиняются могущественному гангстеру Киту. Спустя некоторое время преступник начинает мстить, сжигая дом и магазин Тин Чи. Когда мастеру боевых искусств не удается мирным путем урегулировать конфликт, он решает вступить в открытое противостояние с Китом и его бандой...-- Качество: BDRip
Формат видео: AVI
Видео: Xvid, 720x320, 24 fps, 1628 kb/s
Аудио: AC3, 48.0 kHz, 2 channels, 192 kb/s--

Рейтинг фильма --
General
Complete name : G:\Kino\Ye.wen.wai.zhuan.Zhang.tian.zhi.2018.BDRip.avi
Format : AVI
Format/Info : Audio Video Interleave
File size : 1.37 GiB
Duration : 1 h 47 min
Overall bit rate : 1 829 kb/s
Writing application : VirtualDubMod 1.5.10.3 | www.virtualdub-fr.org || (build 2550/release)
Writing library : VirtualDubMod build 2550/release
Copyright : ExKinoRay
Video
ID : 0
Format : MPEG-4 Visual
Format profile : Advanced Simple@L5
Format settings, BVOP : 1
Format settings, QPel : No
Format settings, GMC : No warppoints
Format settings, Matrix : Custom
Codec ID : XVID
Codec ID/Hint : XviD
Duration : 1 h 47 min
Bit rate : 1 628 kb/s
Width : 720 pixels
Height : 320 pixels
Display aspect ratio : 2.25:1
Frame rate : 24.000 FPS
Color space : YUV
Chroma subsampling : 4:2:0
Bit depth : 8 bits
Scan type : Progressive
Compression mode : Lossy
Bits/(Pixel*Frame) : 0.294
Stream size : 1.22 GiB (89%)
Writing library : XviD 73
Audio
ID : 1
Format : AC-3
Format/Info : Audio Coding 3
Format settings, Endianness : Big
Codec ID : 2000
Duration : 1 h 47 min
Bit rate mode : Constant
Bit rate : 192 kb/s
Channel(s) : 2 channels
Channel positions : Front: L R
Sampling rate : 48.0 kHz
Frame rate : 31.250 FPS (1536 SPF)
Bit depth : 16 bits
Compression mode : Lossy
Stream size : 148 MiB (10%)
Alignment : Split accross interleaves
Interleave, duration : 42 ms (1.00 video frame)
Interleave, preload duration : 500 ms
Title : MVO (HDRezka Studio)
Service kind : Complete Main

Release was prepared by RG Cinema

If your ratio falls below 0.3, you will not be able to download Torrents! More about the rating.

[toptorrent.pw].t5867.torrent
Torrent: Registered [ 2019-05-08 08:45 ] · 29E65D35B94A37670863FF4FC5B051E2F95C793F

Download .torrent

Download

14 KB

Status: checked
Completed: 0 times
Size: 1.37 GB
Rate: 
(Vote: 1)
Has thanked: 1  Thanks   (List)
terms.php
Display posts:    
Reply to topic

Current time is: 20-May 18:07

All times are UTC + 5



You cannot post new topics in this forum
You cannot reply to topics in this forum
You cannot edit your posts in this forum
You cannot delete your posts in this forum
You cannot vote in polls in this forum
You cannot attach files in this forum
You can download files in this forum