Похищение / Abduction (Эрни Барбараш) [2019 г, Фантастика, боевик, HDRip-AVC] MVO

Reply to topic
DL-List and Torrent activity
Size:  1.45 GB   |    Registered:  12 days   |    Completed:  0 times

Seeder not seen: 2 hours 32 minutes

 
 
 
 
Author Message

_Deimos_ ®

VIP пользователь

Gender: Male

Longevity: 1 year 3 months

Posts: 320

Карма: 33000 [+]

Location: Топторрент

Наличие запрета:

[Profile] [PM]

Post 08-May-2019 08:46

[Quote]

Похищение-
--Год выпуска: 2019
Страна: Китай
Жанр: Фантастика, боевик
Продолжительность: 01:37:51
Перевод: Профессиональный многоголосый [HDRezka Studio]--Режиссёр: Эрни Барбараш--В ролях: Скотт Эдкинс, Энди Он, Труонг Нгок Ан, Лили Цзи, Аки Алеонг, Дэниэл Уайт, Майк Лидер, Брахим Ачаббаке, Пол В. Хе, Филипп Жоли-- : Мужчина просыпается рядом с фонтаном в неизвестном азиатском городе и не помнит, кто он и как здесь оказался. Блуждая среди незнакомых пейзажей, он начинает понемногу вспоминать обрывки из прошлой жизни и осознаёт, что его дочь похитили существа из другого измерения. Чтобы найти её, ему придётся искать помощи у людей, которые не знают его языка, и при этом не оказаться в психушке.-- Качество: HDRip-AVC
Формат видео: MKV
Видео: H.264, 720x404, 24fps, 1926 kb/s
Аудио: AC3, 48.0 kHz, 2 channels, 192 kb/s
Субтитры: Английские--

Рейтинг фильма --
General
Unique ID : 189918668197859642162342761714695884291 (0x8EE1014834F8C160B8652803A4954E03)
Complete name : F:\Kino\Любимые актёры\Скотт Эдкинс\Abduction.2019.MVO.HDRip.AVC.ExKinoRay.mkv
Format : Matroska
Format version : Version 2
File size : 1.45 GiB
Duration : 1 h 37 min
Overall bit rate : 2 119 kb/s
Movie name : Abduction 2019 from ExKinoRay
Encoded date : UTC 2019-04-03 19:06:10
Writing application : mkvmerge v5.6.0 ('Kenya Kane') built on May 27 2012 16:44:04
Writing library : libebml v1.2.3 + libmatroska v1.3.0
Attachments : front.png
Video
ID : 1
Format : AVC
Format/Info : Advanced Video Codec
Format profile : High@L4.1
Format settings, CABAC : Yes
Format settings, RefFrames : 11 frames
Codec ID : V_MPEG4/ISO/AVC
Duration : 1 h 37 min
Bit rate : 1 926 kb/s
Width : 720 pixels
Height : 404 pixels
Display aspect ratio : 16:9
Frame rate mode : Constant
Frame rate : 24.000 FPS
Color space : YUV
Chroma subsampling : 4:2:0
Bit depth : 8 bits
Scan type : Progressive
Bits/(Pixel*Frame) : 0.276
Stream size : 1.29 GiB (89%)
Title : Enigma
Writing library : x264 core 152 r2851 ba24899
Encoding settings : cabac=1 / ref=11 / deblock=1:-2:-2 / analyse=0x3:0x113 / me=umh / subme=10 / psy=1 / psy_rd=1.04:0.10 / mixed_ref=1 / me_range=32 / chroma_me=1 / trellis=2 / 8x8dct=1 / cqm=0 / deadzone=21,11 / fast_pskip=0 / chroma_qp_offset=-3 / threads=12 / lookahead_threads=3 / sliced_threads=0 / nr=0 / decimate=0 / interlaced=0 / bluray_compat=0 / constrained_intra=0 / bframes=10 / b_pyramid=2 / b_adapt=2 / b_bias=0 / direct=3 / weightb=1 / open_gop=0 / weightp=2 / keyint=240 / keyint_min=24 / scenecut=40 / intra_refresh=0 / rc_lookahead=40 / rc=2pass / mbtree=1 / bitrate=1926 / ratetol=1.0 / qcomp=0.60 / qpmin=0 / qpmax=51 / qpstep=4 / cplxblur=20.0 / qblur=0.5 / ip_ratio=1.30 / aq=2:0.90
Default : Yes
Forced : No
Color range : Limited
Color primaries : BT.709
Transfer characteristics : BT.709
Matrix coefficients : BT.709
Audio
ID : 2
Format : AC-3
Format/Info : Audio Coding 3
Format settings, Endianness : Big
Codec ID : A_AC3
Duration : 1 h 37 min
Bit rate mode : Constant
Bit rate : 192 kb/s
Channel(s) : 2 channels
Channel positions : Front: L R
Sampling rate : 48.0 kHz
Frame rate : 31.250 FPS (1536 SPF)
Bit depth : 16 bits
Compression mode : Lossy
Stream size : 134 MiB (9%)
Title : MVO (HDRezka Studio)
Language : Russian
Service kind : Complete Main
Default : Yes
Forced : No
Text
ID : 3
Format : UTF-8
Codec ID : S_TEXT/UTF8
Codec ID/Info : UTF-8 Plain Text
Language : English
Default : No
Forced : No
Menu
00:00:00.000 : :Chapter 01
00:07:53.167 : :Chapter 02
00:20:09.125 : :Chapter 03
00:30:17.375 : :Chapter 04
00:45:22.500 : :Chapter 05
00:52:12.458 : :Chapter 06
00:56:31.625 : :Chapter 07
01:02:18.875 : :Chapter 08
01:12:20.375 : :Chapter 09
01:31:41.750 : :Chapter 10

Release was prepared by RG Cinema

If your ratio falls below 0.3, you will not be able to download Torrents! More about the rating.

[toptorrent.pw].t5868.torrent
Torrent: Registered [ 2019-05-08 08:46 ] · 9FC0707E2ED995F54478A2A84B253157F8D4DAD9

Download .torrent

Download

15 KB

Status: checked
Completed: 0 times
Size: 1.45 GB
Rate: 
(Vote: 1)
Has thanked: 1  Thanks   (List)
terms.php
Display posts:    
Reply to topic

Current time is: 20-May 17:32

All times are UTC + 5



You cannot post new topics in this forum
You cannot reply to topics in this forum
You cannot edit your posts in this forum
You cannot delete your posts in this forum
You cannot vote in polls in this forum
You cannot attach files in this forum
You can download files in this forum