Мы были солдатами / We were soldiers (Рэндалл Уоллес) [2002 г., Боевик, военный, история, HDRip-AVC] DUB

Reply to topic
DL-List and Torrent activity
Size:  1.45 GB   |    Registered:  10 days   |    Completed:  0 times
Seeders:  1  [  0 KB/s  ]   Show peers in full details
 
 
 
 
Author Message

_Deimos_ ®

VIP пользователь

Gender: Male

Longevity: 1 year 3 months

Posts: 320

Карма: 33000 [+]

Location: Топторрент

Наличие запрета:

[Profile] [PM]

Post 09-May-2019 18:26

[Quote]

Мы были солдатами-
--Год выпуска: 2002
Страна: США, Германия
Жанр: Боевик, военный, история
Продолжительность: 02:18:32
Перевод: Профессиональный дублирование--Режиссёр: Рэндалл Уоллес--В ролях: Мэл Гибсон, Мэдлин Стоу, Грег Киннер, Сэм Эллиотт, Крис Клейн, Кери Рассел, Бэрри Пеппер, Дон Дуонг, Райан Херст, Роберт Бэгнелл- : Рассказ о героях и их героизме, которых незаслуженно забыли при сражении под Ай Дрэнгом. В первом крупном сражении между американскими и вьетконговскими войсками 395 американцев оказалось в окружении, причем враг значительно превосходил их по численности. События происходили с 23 октября по 26 ноября 1965 года.-- Качество: HDRip-AVC
Формат видео: MKV
Видео: H.264, 1024x432, 23.976 fps, 1118 kb/s
Аудио: AC3, 48.0 kHz, 6 channels, 384 kb/s--

Рейтинг фильма --
General
Unique ID : 221537463243607053470475904610073356741 (0xA6AA903CB72ABC5B89875D39CE1CA9C5)
Complete name : F:\Kino\Боевики\Мы были солдатами. 2002.mkv
Format : Matroska
Format version : Version 2
File size : 1.45 GiB
Duration : 2 h 18 min
Overall bit rate : 1 503 kb/s
Encoded date : UTC 2012-04-01 21:30:24
Writing application : mkvmerge v4.6.0 ('Still Crazy After All These Years') сборка от Apr 1 2011 21:01:49
Writing library : libebml v1.2.0 + libmatroska v1.1.0
Video
ID : 1
Format : AVC
Format/Info : Advanced Video Codec
Format profile : High@L4.1
Format settings, CABAC : Yes
Format settings, RefFrames : 4 frames
Codec ID : V_MPEG4/ISO/AVC
Duration : 2 h 18 min
Bit rate : 1 118 kb/s
Width : 1 024 pixels
Height : 432 pixels
Display aspect ratio : 2.40:1
Frame rate mode : Constant
Frame rate : 23.976 (24000/1001) FPS
Color space : YUV
Chroma subsampling : 4:2:0
Bit depth : 8 bits
Scan type : Progressive
Bits/(Pixel*Frame) : 0.105
Stream size : 1.05 GiB (72%)
Writing library : x264 core 115 r1937 aa21558
Encoding settings : cabac=1 / ref=3 / deblock=1:-1:-1 / analyse=0x3:0x113 / me=hex / subme=7 / psy=1 / psy_rd=1.00:0.10 / mixed_ref=1 / me_range=16 / chroma_me=1 / trellis=1 / 8x8dct=1 / cqm=0 / deadzone=21,11 / fast_pskip=1 / chroma_qp_offset=-3 / threads=6 / sliced_threads=0 / nr=0 / decimate=1 / interlaced=0 / bluray_compat=0 / constrained_intra=0 / bframes=3 / b_pyramid=2 / b_adapt=1 / b_bias=0 / direct=3 / weightb=1 / open_gop=0 / weightp=2 / keyint=250 / keyint_min=23 / scenecut=40 / intra_refresh=0 / rc_lookahead=40 / rc=2pass / mbtree=1 / bitrate=1118 / ratetol=1.0 / qcomp=0.60 / qpmin=0 / qpmax=69 / qpstep=4 / cplxblur=20.0 / qblur=0.5 / ip_ratio=1.40 / aq=1:1.00
Default : Yes
Forced : No
Audio
ID : 2
Format : AC-3
Format/Info : Audio Coding 3
Format settings, Endianness : Big
Codec ID : A_AC3
Duration : 2 h 18 min
Bit rate mode : Constant
Bit rate : 384 kb/s
Channel(s) : 6 channels
Channel positions : Front: L C R, Side: L R, LFE
Sampling rate : 48.0 kHz
Frame rate : 31.250 FPS (1536 SPF)
Bit depth : 16 bits
Compression mode : Lossy
Stream size : 380 MiB (26%)
Service kind : Complete Main
Default : Yes
Forced : No

Release was prepared by RG Cinema

If your ratio falls below 0.3, you will not be able to download Torrents! More about the rating.

[toptorrent.pw].t5880.torrent
Torrent: Registered [ 2019-05-09 18:26 ] · 17A45741592C77B3C114F11695BB62787F6C2584

Download .torrent

Download

15 KB

Status: checked
Completed: 0 times
Size: 1.45 GB
Rate: 
(Vote: 0)
Has thanked: 0  Thanks
terms.php
Display posts:    
Reply to topic

Current time is: 20-May 17:54

All times are UTC + 5



You cannot post new topics in this forum
You cannot reply to topics in this forum
You cannot edit your posts in this forum
You cannot delete your posts in this forum
You cannot vote in polls in this forum
You cannot attach files in this forum
You can download files in this forum