По соображениям совести / Hacksaw Ridge (Мэл Гибсон) [2016 г., Драма, военный, история, BDRip] DUB [iTunes]

Reply to topic

DL-List and Torrent activity
Size:  2.12 GB   |    Registered:  4 months 10 days   |    Completed:  0 times

Seeder not seen: 1 month 20 days

 
 
 
 
Author Message

_Deimos_ ®

VIP пользователь

Gender: Male

Longevity: 1 year 7 months

Posts: 379

Карма: 33000 [+]

Наличие запрета:

[Profile] [PM]

Post 09-May-2019 18:54

[Quote]

По соображениям совести-
--Год выпуска: 2016
Страна: Австралия, США
Жанр: Драма, военный, история
Продолжительность: 02:19:19
Перевод: Профессиональный дублирование [iTunes]--Режиссёр: Мэл Гибсон--В ролях: Эндрю Гарфилд, Ричард Пирос, Джейкоб Уорнер, Мило Гибсон, Дарси Брайс, Роман Геррьеро, Джеймс Лагтон, Касия Стелмах, Хьюго Уивинг, Рэйчел Гриффитс- : Медик американской армии времён Второй Мировой войны Дезмонд Досс, служивший во время битвы за Окинаву, отказывается убивать людей и становится первым идейным уклонистом в американской истории, удостоенным Медали Почёта.-- Качество: BDRip
Формат видео: AVI
Видео: Xvid, 720x304, 23.976 fps, 1781 kb/s
Аудио: AC3, 48.0 kHz, 6 channels, 384 kb/s--

Рейтинг фильма --
General
Complete name : F:\Kino\Боевики\По соображениям совести. 2016.avi
Format : AVI
Format/Info : Audio Video Interleave
Format profile : OpenDML
File size : 2.12 GiB
Duration : 2 h 19 min
Overall bit rate : 2 177 kb/s
Writing application : VirtualDubMod 1.5.10.3 | www.virtualdub-fr.org || (build 2550/release)
Writing library : VirtualDubMod build 2550/release
Video
ID : 0
Format : MPEG-4 Visual
Format profile : Advanced Simple@L5
Format settings, BVOP : 1
Format settings, QPel : No
Format settings, GMC : No warppoints
Format settings, Matrix : Custom
Codec ID : XVID
Codec ID/Hint : XviD
Duration : 2 h 19 min
Bit rate : 1 781 kb/s
Width : 720 pixels
Height : 304 pixels
Display aspect ratio : 2.35:1
Frame rate : 23.976 (24000/1001) FPS
Color space : YUV
Chroma subsampling : 4:2:0
Bit depth : 8 bits
Scan type : Progressive
Compression mode : Lossy
Bits/(Pixel*Frame) : 0.339
Stream size : 1.73 GiB (82%)
Writing library : XviD 73
Audio
ID : 1
Format : AC-3
Format/Info : Audio Coding 3
Format settings, Endianness : Big
Codec ID : 2000
Duration : 2 h 19 min
Bit rate mode : Constant
Bit rate : 384 kb/s
Channel(s) : 6 channels
Channel positions : Front: L C R, Side: L R, LFE
Sampling rate : 48.0 kHz
Frame rate : 31.250 FPS (1536 SPF)
Bit depth : 16 bits
Compression mode : Lossy
Stream size : 383 MiB (18%)
Alignment : Split accross interleaves
Interleave, duration : 42 ms (1.00 video frame)
Interleave, preload duration : 500 ms
Service kind : Complete Main

Release was prepared by RG Cinema


[toptorrent.pw].t5881.torrent
 GOLD TORRENT! DOWNLOAD TRAFFIC DOES NOT CONSIDER! 
Вечный
Torrent: Registered [ 2019-05-09 18:54 ] · CBB0CC08DA9EAC13CC027C3DF4F19D9E061B4F03

Download .torrent

Download

11 KB

Status: checked
Completed: 0 times
Size: 2.12 GB
Rate: 
(Vote: 1)
Has thanked: 2  Thanks   (List)
terms.php
Display posts:    
Reply to topic

Current time is: 20-Sep 14:35

All times are UTC + 5



You cannot post new topics in this forum
You cannot reply to topics in this forum
You cannot edit your posts in this forum
You cannot delete your posts in this forum
You cannot vote in polls in this forum
You cannot attach files in this forum
You can download files in this forum