Люцифер / Lucifer / Сезон 4 / Серии 1-3 из 10 (Лен Уайзман) [2019 г., Мистика, Драма, Комедия, Детектив, Комиксы, WEB-DL 1080p] MVO (LostFilm) + Original Eng

Reply to topic
DL-List and Torrent activity
Size:  7.79 GB   |    Registered:  1 day 19 hours   |    Completed:  0 times
Seeders:  8  [  287 KB/s  ]   Leechers:  1  [  0 KB/s  ]   Show peers in full details
   
 
Author Message

.:Mercury:. ®

Gender: Male

Longevity: 1 year 3 months

Posts: 3180

Карма: 31947 [+]

Наличие запрета:

[Profile] [PM]

Post 11-May-2019 08:24

[Quote]

Люцифер / Lucifer- -Год выпуска: 2019
Страна: США
Жанр: Мистика, Драма, Комедия, Детектив, Комиксы
Продолжительность: ~00:48:00
Перевод: Профессиональный (многоголосый, закадровый) LostFilm--Режиссер: Лен Уайзман--В ролях: Рэйчел Харрис, Лорен Джерман, Кайла Юэлл, Кевин Алехандро, Лесли-Энн Брандт, Д.Б. Вудсайд, Том Эллис, Мэтт Корбой, Скарлет Эстевез--Описание: Люцифер Денница (Том Эллис) — могущественный и бессмертный повелитель преисподней, которому наскучило каждый день наказывать грешников, а потому он без раздумий покинул свое «рабочее место» и устроил себе каникулы в Лос-Анджелесе. Обладатель дьявольской харизмы и способности вытягивать из людей правду об их сокровенных желаниях первым делом открыл свой ночной клуб. Денница живет на полную катушку, манипулируя смертными, тем более что ему это дается очень легко. От одного взгляда на сексапильного кареглазого брюнета женщины выпрыгивают из платьев, а мужчины рядом с таким альфа-самцом превращаются в дрессированных щенков. Но однажды самоуверенный ловелас встречает девушку, неподвластную его чарам. Крайне удивленный, он пытается понять, что такого особенного в амбициозном детективе полиции по имени Хлоя (Лорен Джерман). Дабы приблизиться к разгадке, конечно же, не переставая развлекаться, мистер Денница набивается к ней в помощники и уже совсем скоро начинает работать в органах правопорядка. Но мало того, что детектив Декер по-прежнему не поддается его чарам, так еще и знакомые демоны гнусно намекают на то, что он размяк и стал слишком человечным для Сатаны. Со своим кризисом самоопределения главный герой отправляется к психологу, а тем временем криминальный мир подбрасывает Люциферу и его очаровательной напарнице запутанные и таинственные дела одно другого опасней. Чем не повод повеселиться, а заодно проверить на прочность границы своего бессмертия?..--Качество: WEB-DL 1080p
Формат: MKV
Видео кодек: H.264
Аудио кодек: AC3
Видео: MPEG4 Video (H264) 1920x1080 23.976fps 6 800 kb/s
Аудио: Dolby AC3 48000Hz stereo 384kbps | Rus, Eng
General
Unique ID : 245340877845439935950519315650780330000 (0xB892EF2FC2088AF8844C8AD2A187F810)
Complete name : D:\Lucifer.S04E01.1080p.rus.LostFilm.TV.mkv
Format : Matroska
Format version : Version 4
File size : 2.58 GiB
Duration : 48 min 50 s
Overall bit rate : 7 572 kb/s
Encoded date : UTC 2019-05-10 18:12:46
Writing application : mkvmerge v9.5.0 ('Quiet Fire') 64bit
Writing library : libebml v1.3.4 + libmatroska v1.4.5
Video
ID : 1
Format : AVC
Format/Info : Advanced Video Codec
Format profile : High@L4.1
Format settings : CABAC / 4 Ref Frames
Format settings, CABAC : Yes
Format settings, Reference fra : 4 frames
Codec ID : V_MPEG4/ISO/AVC
Duration : 48 min 50 s
Bit rate : 6 800 kb/s
Width : 1 920 pixels
Height : 1 080 pixels
Display aspect ratio : 16:9
Frame rate mode : Constant
Frame rate : 23.976 (24000/1001) FPS
Original frame rate : 23.976 (23976/1000) FPS
Color space : YUV
Chroma subsampling : 4:2:0
Bit depth : 8 bits
Scan type : Progressive
Bits/(Pixel*Frame) : 0.137
Stream size : 2.32 GiB (90%)
Writing library : x264 core 112 r1834 a51816a
Encoding settings : cabac=1 / ref=4 / deblock=1:-3:-2 / analyse=0x3:0x113 / me=hex / subme=7 / psy=1 / psy_rd=1.00:0.00 / mixed_ref=1 / me_range=16 / chroma_me=1 / trellis=1 / 8x8dct=1 / cqm=0 / deadzone=21,11 / fast_pskip=1 / chroma_qp_offset=-2 / threads=12 / sliced_threads=0 / nr=0 / decimate=1 / interlaced=0 / constrained_intra=0 / bframes=5 / b_pyramid=2 / b_adapt=1 / b_bias=0 / direct=1 / weightb=1 / open_gop=0 / weightp=2 / keyint=250 / keyint_min=25 / scenecut=40 / intra_refresh=0 / rc_lookahead=40 / rc=2pass / mbtree=1 / bitrate=6800 / ratetol=1.0 / qcomp=0.60 / qpmin=0 / qpmax=51 / qpstep=4 / cplxblur=20.0 / qblur=0.5 / vbv_maxrate=10000 / vbv_bufsize=256000 / ip_ratio=1.40 / aq=1:1.00 / nal_hrd=none
Default : Yes
Forced : No
Audio #1
ID : 2
Format : AC-3
Format/Info : Audio Coding 3
Commercial name : Dolby Digital
Codec ID : A_AC3
Duration : 48 min 50 s
Bit rate mode : Constant
Bit rate : 384 kb/s
Channel(s) : 2 channels
Channel layout : L R
Sampling rate : 48.0 kHz
Frame rate : 31.250 FPS (1536 SPF)
Bit depth : 16 bits
Compression mode : Lossy
Stream size : 134 MiB (5%)
Service kind : Complete Main
Default : Yes
Forced : No
Audio #2
ID : 3
Format : AC-3
Format/Info : Audio Coding 3
Commercial name : Dolby Digital
Codec ID : A_AC3
Duration : 48 min 50 s
Bit rate mode : Constant
Bit rate : 384 kb/s
Channel(s) : 2 channels
Channel layout : L R
Sampling rate : 48.0 kHz
Frame rate : 31.250 FPS (1536 SPF)
Bit depth : 16 bits
Compression mode : Lossy
Stream size : 134 MiB (5%)
Service kind : Complete Main
Default : No
Forced : No

Release was prepared by RG Serials

If your ratio falls below 0.3, you will not be able to download Torrents! More about the rating.

[toptorrent.pw].t5887.torrent
Torrent: Registered [ 2019-05-18 22:05 ] · E98A7D2BF66BA6993C3622B55F4D01209CD64FD7

Download .torrent

Download

20 KB

Status: T temporary
Completed: 0 times
Size: 7.79 GB
Rate: 
(Vote: 0)
Has thanked: 0  Thanks
terms.php


Last edited by .:Mercury:. on 2019-05-18 22:05; edited 1 time in total

.:Mercury:. ®

Gender: Male

Longevity: 1 year 3 months

Posts: 3180

Карма: 31947 [+]

Наличие запрета:

[Profile] [PM]

Post 14-May-2019 12:27 (after 3 days)

[Quote]

+2-я серия

.:Mercury:. ®

Gender: Male

Longevity: 1 year 3 months

Posts: 3180

Карма: 31947 [+]

Наличие запрета:

[Profile] [PM]

Post 18-May-2019 22:06 (after 4 days)

[Quote]

+3-я серия
Display posts:    
Reply to topic

Current time is: 20-May 17:41

All times are UTC + 5



You cannot post new topics in this forum
You cannot reply to topics in this forum
You cannot edit your posts in this forum
You cannot delete your posts in this forum
You cannot vote in polls in this forum
You cannot attach files in this forum
You can download files in this forum