Крепкий орешек: Антология / Die Hard: Antology (Джон МакТирнан, Ренни Харлин, Лен Уайзман, Джон Мур) [1988-2013 г., Боевик, триллер, криминал, приключения, BDRip] DUB, MVO

Reply to topic
DL-List and Torrent activity
Size:  7.29 GB   |    Registered:  10 days   |    Completed:  0 times
Seeders:  2  [  0 KB/s  ]   Show peers in full details
 
 
 
 
Author Message

_Deimos_ ®

VIP пользователь

Gender: Male

Longevity: 1 year 3 months

Posts: 320

Карма: 33000 [+]

Location: Топторрент

Наличие запрета:

[Profile] [PM]

Post 12-May-2019 11:59

[Quote]


-- Год выпуска: 1988
Страна: США
Жанр: Боевик, триллер
Продолжительность: 02:12:11
Перевод: Профессиональный дублирование--Режиссер: Джон МакТирнан--В ролях: Брюс Уиллис (Officer John McClane), Алан Рикман (Hans Gruber), Бонни Беделиа (Holly Gennaro McClane), Реджинальд ВелДжонсон (Sgt. Al Powell), Пол Глисон (Deputy Police Chief Dwayne T. Robinson), Уильям Этертон (Richard Thornburg), Харт Бокнер (Harry Ellis), Джеймс Шигета (Joseph Yoshinobu Takagi), Александр Годунов (Karl), Роберт Дави (FBI Special Agent Big Johnson), Гранд Л. Буш (FBI Agent Little Johnson), Бруно Доуон (Franco)-- В суперсовременном небоскребе Лос-Анджелеса полицейский Джон Макклейн ведет смертельную схватку с бандой политических террористов, взявших в заложники два десятка человек, в число которых попадает и его жена. Началось все с того, что парень приехал в город к жене, оказался на рождественском приеме, а кончилось настоящей войной...-- Качество: BDRip
Формат видео: AVI
Видео кодек: Xvid, 720x304, 23.976 fps, 1375 kb/s
Аудио кодек: AC3, 48.0 kHz, 2 channels, 192 kb/s--

Рейтинг фильма --
General
Complete name : F:\Kino\Боевики\Крепкий орешек Антология\1988. Крепкий орешек..avi
Format : AVI
Format/Info : Audio Video Interleave
File size : 1.46 GiB
Duration : 2 h 12 min
Overall bit rate : 1 576 kb/s
Director : Last Boy Scout
Writing application : VirtualDubMod 1.5.10.3 | www.virtualdub-fr.org || (build 2550/release)
Copyright : rutracker.org 14.12.2013
Comment : BDRip Dub
Video
ID : 0
Format : MPEG-4 Visual
Format profile : Advanced Simple@L5
Format settings, BVOP : 1
Format settings, QPel : No
Format settings, GMC : No warppoints
Format settings, Matrix : Custom
Codec ID : XVID
Codec ID/Hint : XviD
Duration : 2 h 12 min
Bit rate : 1 375 kb/s
Width : 720 pixels
Height : 304 pixels
Display aspect ratio : 2.35:1
Frame rate : 23.976 (24000/1001) FPS
Color space : YUV
Chroma subsampling : 4:2:0
Bit depth : 8 bits
Scan type : Progressive
Compression mode : Lossy
Bits/(Pixel*Frame) : 0.262
Stream size : 1.27 GiB (87%)
Writing library : XviD 73
Audio
ID : 1
Format : AC-3
Format/Info : Audio Coding 3
Format settings, Endianness : Big
Codec ID : 2000
Duration : 2 h 12 min
Bit rate mode : Constant
Bit rate : 192 kb/s
Channel(s) : 2 channels
Channel positions : Front: L R
Sampling rate : 48.0 kHz
Frame rate : 31.250 FPS (1536 SPF)
Bit depth : 16 bits
Compression mode : Lossy
Stream size : 182 MiB (12%)
Alignment : Split accross interleaves
Interleave, duration : 42 ms (1.00 video frame)
Interleave, preload duration : 500 ms
Service kind : Complete Main

-- Год выпуска: 1990
Страна: США
Жанр: Боевик, триллер
Продолжительность: 02:03:23
Перевод: Профессиональный дублирование--Режиссер: Ренни Харлин--В ролях: Брюс Уиллис (Lt. John McClane), Бонни Беделиа (Holly McClane), Уильям Сэдлер (Col. Stuart), Франко Неро (Gen. Ramon Esperanza), Уильям Этертон (Richard Thornburg), Деннис Франц (Capt. Carmine Lorenzo), Джон Эймос (Maj. Grant), Арт Эванс (Leslie Barnes), Фред Долтон Томпсон (Trudeau), Реджинальд ВелДжонсон (Sgt. Al Powell), Том Бауэр (Marvin), Шила МакКарти (Samantha «Sam» Coleman)-- В канун Рождества группа террористов захватила международный аэропорт и теперь удерживает тысячи путешествующих в качестве заложников. Террористы - банда отступников из первоклассно вооруженных коммандос, возглавляемых одержимым жестокостью офицером. Их цель - спасти наркобарона.
Банда подготовлена ко всевозможным случайностям, за исключением одной - встречи с Джоном Макклейном. Брюс Уиллис возвращается в роли супергероя-полицейского, который сражается не только с террористами, но и с некомпетентным шефом полиции аэропорта, тупоголовым начальником антитеррористического подразделения и страшным снежным бураном.
Заложники мечутся, смертельно испуганные и растерянные. А Джон Макклейн ведет схватку и со временем. Его жена находится в одном из самолетов, кружащих над аэропортом. А топливо - на пределе...-- Качество: BDRip
Формат видео: AVI
Видео кодек: Xvid, 720x304, 23.976 fps, 1487 kb/s
Аудио кодек: AC3, 48.0 kHz, 2 channels, 192 kb/s--

Рейтинг фильма --
General
Complete name : F:\Kino\Боевики\Крепкий орешек Антология\1990. Крепкий орешек 2..avi
Format : AVI
Format/Info : Audio Video Interleave
File size : 1.45 GiB
Duration : 2 h 3 min
Overall bit rate : 1 688 kb/s
Director : Last Boy Scout
Writing application : VirtualDubMod 1.5.10.3 | www.virtualdub-fr.org || (build 2550/release)
Copyright : rutracker.org 15.12.2013
Comment : BDRip Dub
Video
ID : 0
Format : MPEG-4 Visual
Format profile : Advanced Simple@L5
Format settings, BVOP : 1
Format settings, QPel : No
Format settings, GMC : No warppoints
Format settings, Matrix : Custom
Codec ID : XVID
Codec ID/Hint : XviD
Duration : 2 h 3 min
Bit rate : 1 487 kb/s
Width : 720 pixels
Height : 304 pixels
Display aspect ratio : 2.35:1
Frame rate : 23.976 (24000/1001) FPS
Color space : YUV
Chroma subsampling : 4:2:0
Bit depth : 8 bits
Scan type : Progressive
Compression mode : Lossy
Bits/(Pixel*Frame) : 0.283
Stream size : 1.28 GiB (88%)
Writing library : XviD 73
Audio
ID : 1
Format : AC-3
Format/Info : Audio Coding 3
Format settings, Endianness : Big
Codec ID : 2000
Duration : 2 h 3 min
Bit rate mode : Constant
Bit rate : 192 kb/s
Channel(s) : 2 channels
Channel positions : Front: L R
Sampling rate : 48.0 kHz
Frame rate : 31.250 FPS (1536 SPF)
Bit depth : 16 bits
Compression mode : Lossy
Stream size : 169 MiB (11%)
Alignment : Split accross interleaves
Interleave, duration : 42 ms (1.00 video frame)
Interleave, preload duration : 500 ms
Service kind : Complete Main

-- Год выпуска: 1995
Страна: США
Жанр: Боевик, триллер, криминал
Продолжительность: 02:08:32
Перевод: Профессиональный многоголосый--Режиссер: Джон МакТирнан--В ролях: Брюс Уиллис (John McClane), Сэмюэл Л. Джексон (Zeus Carver), Джереми Айронс (Simon Gruber), Ларри Бриггман (Insp. Walter Cobb), Грэм Грин (Joe Lambert), Коллин Кэмп (Connie Kowalski), Энтони Пек (Ricky Walsh), Николас Уаймэн (Mathias Targo), Сэм Филлипс (Katya), Кевин Чэмберлин (Charles Weiss), Шэрон Вашингтон (Officer Jane), Стивен Перлман (Dr. Fred Schiller)-- На улицах Нью-Йорка офицер полиции Джон МакКлейн видел все, что только возможно. На этот раз для того, чтобы отомстить МакКлейну, террорист Саймон, виртуозно устраивающий взрывы, заставляет героя - полицейского играть в смертельную игру. Ставка - город Нью-Йорк.
МакКлейн вынужден метаться по городу, следуя телефонным указаниям Саймона, готового разнести пол - Нью-Йорка за малейшее отклонение от его требований. И в то время, как вся полиция города занята поисками террористов, преступники похищают золотой запас Национального банка США.
У МакКлейна бывали неудачные деньки за годы службы в полиции, но сегодня у него, похоже, будет исключительно скверный день...-- Качество: BDRip
Формат видео: AVI
Видео кодек: Xvid, 720x320, 23.976 fps, 1490 kb/s
Аудио кодек: AC3, 44.1 kHz, 2 channels, 128 kb/s--

Рейтинг фильма --
General
Complete name : F:\Kino\Боевики\Крепкий орешек Антология\1995. Крепкий орешек 3 Возмездие..avi
Format : AVI
Format/Info : Audio Video Interleave
Format profile : OpenDML
File size : 1.46 GiB
Duration : 2 h 8 min
Overall bit rate : 1 632 kb/s
Writing application : MEncoder SVN-r33883(20110719-gcc4.5.2)
Writing library : MPlayer
Video
ID : 0
Format : MPEG-4 Visual
Format profile : Advanced Simple@L5
Format settings, BVOP : 2
Format settings, QPel : No
Format settings, GMC : No warppoints
Format settings, Matrix : Default (H.263)
Codec ID : XVID
Codec ID/Hint : XviD
Duration : 2 h 8 min
Bit rate : 1 490 kb/s
Width : 720 pixels
Height : 320 pixels
Display aspect ratio : 2.35:1
Original display aspect ratio : 2.40:1
Frame rate : 23.976 (24000/1001) FPS
Original frame rate : 23.976 (23976/1000) FPS
Color space : YUV
Chroma subsampling : 4:2:0
Bit depth : 8 bits
Scan type : Progressive
Compression mode : Lossy
Bits/(Pixel*Frame) : 0.270
Stream size : 1.34 GiB (91%)
Writing library : XviD 1.2.1 (UTC 2008-12-04)
Audio
ID : 1
Format : MPEG Audio
Format version : Version 1
Format profile : Layer 3
Mode : Joint stereo
Mode extension : MS Stereo
Codec ID : 55
Codec ID/Hint : MP3
Duration : 2 h 8 min
Bit rate mode : Constant
Bit rate : 128 kb/s
Channel(s) : 2 channels
Sampling rate : 44.1 kHz
Compression mode : Lossy
Delay relative to video : 42 ms
Stream size : 118 MiB (8%)
Alignment : Aligned on interleaves
Interleave, duration : 26 ms (0.63 video frame)
Interleave, preload duration : 522 ms
Writing library : LAME3.98.4

-- Год выпуска: 2007
Страна: США Великобритания
Жанр: Боевик, триллер, приключения
Продолжительность: 02:08:42
Перевод: Профессиональный дублирование--Режиссер: Лен Уайзман--В ролях: Брюс Уиллис (John McClane), Джастин Лонг (Matthew «Matt» Farrell), Тимоти Олифант (Thomas Gabriel), Мэгги Кью (Mai Linh), Клифф Кёртис (FBI Deputy Director Miguel Bowman), Джонатан Садовский (Trey), Мэри Элизабет Уинстэд (Lucy Gennaro McClane), Кевин Смит (Frederick «Warlock» Kaludis), Эндрю Фридман (Casper), Сирил Раффаэлли (Rand), Йорго Константин (Russo), Крис Палермо (Del)-- Мир опять на краю гибели из-за новой террористической угрозы. В этот раз в «заложниках» оказывается всемирная компьютерная сеть. Правительство и спецслужбы бессильны, все готово погрузиться в хаос. Но на борьбу с нависшей над миром опасностью выходит наш старый герой Джон МакКлейн со своей неразлучной подругой «Береттой».
Он давно в отставке, но когда на карту поставлена жизнь членов его семьи, он не будет стоять в стороне и бросит вызов террористам. Однако в этот раз ему уже не справиться без молодого, но очень талантливого помощника.-- Качество: BDRip
Формат видео: AVI
Видео кодек: Xvid, 720x304, 23.976 fps, 1417 kb/s
Аудио кодек: AC3, 48.0 kHz, 2 channels, 192 kb/s--

Рейтинг фильма --
General
Complete name : F:\Kino\Боевики\Крепкий орешек Антология\2007. Крепкий орешек 4.0..avi
Format : AVI
Format/Info : Audio Video Interleave
File size : 1.45 GiB
Duration : 2 h 8 min
Overall bit rate : 1 618 kb/s
Director : Last Boy Scout
Writing application : VirtualDubMod 1.5.10.3 | www.virtualdub-fr.org || (build 2550/release)
Copyright : rutracker.org 24.12.2013
Comment : BDRip Dub
Video
ID : 0
Format : MPEG-4 Visual
Format profile : Advanced Simple@L5
Format settings, BVOP : 1
Format settings, QPel : No
Format settings, GMC : No warppoints
Format settings, Matrix : Custom
Codec ID : XVID
Codec ID/Hint : XviD
Duration : 2 h 8 min
Bit rate : 1 417 kb/s
Width : 720 pixels
Height : 304 pixels
Display aspect ratio : 2.35:1
Frame rate : 23.976 (24000/1001) FPS
Color space : YUV
Chroma subsampling : 4:2:0
Bit depth : 8 bits
Scan type : Progressive
Compression mode : Lossy
Bits/(Pixel*Frame) : 0.270
Stream size : 1.27 GiB (88%)
Writing library : XviD 73
Audio
ID : 1
Format : AC-3
Format/Info : Audio Coding 3
Format settings, Endianness : Big
Codec ID : 2000
Duration : 2 h 8 min
Bit rate mode : Constant
Bit rate : 192 kb/s
Channel(s) : 2 channels
Channel positions : Front: L R
Sampling rate : 48.0 kHz
Frame rate : 31.250 FPS (1536 SPF)
Bit depth : 16 bits
Compression mode : Lossy
Stream size : 177 MiB (12%)
Alignment : Split accross interleaves
Interleave, duration : 42 ms (1.00 video frame)
Interleave, preload duration : 500 ms
Service kind : Complete Main

-- Год выпуска: 2013
Страна: США
Жанр: Боевик, триллер, криминал
Продолжительность: 01:41:11
Перевод: Профессиональный дублирование--Режиссер: Джон Мур--В ролях: Брюс Уиллис (John McClane), Джай Кортни (Jack McClane), Себастьян Кох (Komarov), Юлия Снигирь (Irina), Радивойе Буквич (Alik), Сергей Колесников (Chagarin), Мэри Элизабет Уинстэд (Lucy), Коул Хаузер (Collins), Амори Ноласко (Murphy), Роман Лукнар (Anton), Золи Ганкста (MRAP Driver), Петер Такачи (Prosecutor)-- Джон МакКлейн прибывает в Москву, чтобы вызволить из тюрьмы своего непредсказуемого сына, но холодная голова и железные мускулы вязнут в паутине российской действительности. Дело, в которое влип МакКлейн-младший, оказывается настолько «опасной трясиной», что отцу и сыну, чтобы выжить и в очередной раз спасти мир, приходится объединить свои усилия, забыв прежние, казалось бы, непреодолимые разногласия.-- Качество: BDRip
Формат видео: AVI
Видео кодек: Xvid, 704x384, 23.976 fps, 1677 kb/s
Аудио кодек: AC3, 48.0 kHz, 6 channels, 384 kb/s--

Рейтинг фильма --
General
Complete name : F:\Kino\Боевики\Крепкий орешек Антология\2013. Крепкий орешек Хороший день, чтобы умереть..avi
Format : AVI
Format/Info : Audio Video Interleave
File size : 1.46 GiB
Duration : 1 h 41 min
Overall bit rate : 2 070 kb/s
Writing application : VirtualDubModRus 1.5.10.2 (build 2542/release)
Writing library : VirtualDubMod build 2542/release
Video
ID : 0
Format : MPEG-4 Visual
Format profile : Advanced Simple@L5
Format settings, BVOP : 1
Format settings, QPel : No
Format settings, GMC : No warppoints
Format settings, Matrix : Custom
Codec ID : XVID
Codec ID/Hint : XviD
Duration : 1 h 41 min
Bit rate : 1 677 kb/s
Width : 704 pixels
Height : 384 pixels
Display aspect ratio : 1.85:1
Frame rate : 23.976 (24000/1001) FPS
Original frame rate : 23.976 (23976/1000) FPS
Color space : YUV
Chroma subsampling : 4:2:0
Bit depth : 8 bits
Scan type : Progressive
Compression mode : Lossy
Bits/(Pixel*Frame) : 0.259
Stream size : 1.19 GiB (81%)
Writing library : XviD 65
Audio
ID : 1
Format : AC-3
Format/Info : Audio Coding 3
Format settings, Endianness : Big
Codec ID : 2000
Duration : 1 h 41 min
Bit rate mode : Constant
Bit rate : 384 kb/s
Channel(s) : 6 channels
Channel positions : Front: L C R, Side: L R, LFE
Sampling rate : 48.0 kHz
Frame rate : 31.250 FPS (1536 SPF)
Bit depth : 16 bits
Compression mode : Lossy
Stream size : 278 MiB (19%)
Alignment : Split accross interleaves
Interleave, duration : 42 ms (1.00 video frame)
Interleave, preload duration : 500 ms
Title : DUB
Service kind : Complete Main

Release was prepared by RG Cinema

[toptorrent.pw].t5891.torrent
 GOLD TORRENT! DOWNLOAD TRAFFIC DOES NOT CONSIDER! 
Вечный
Torrent: Registered [ 2019-05-12 11:59 ] · 255F57FC8BAA2DA65ABA920BAE61F271D037691B

Download .torrent

Download

19 KB

Status: checked
Completed: 0 times
Size: 7.29 GB
Rate: 
(Vote: 1)
Has thanked: 1  Thanks   (List)
terms.php
Display posts:    
Reply to topic

Current time is: 22-May 14:01

All times are UTC + 5



You cannot post new topics in this forum
You cannot reply to topics in this forum
You cannot edit your posts in this forum
You cannot delete your posts in this forum
You cannot vote in polls in this forum
You cannot attach files in this forum
You can download files in this forum