В пустыне смерти / Into the Badlands / Сезон 2 Полный / Серии 1-10 из 10 (Пако Кабесас, Тоа Фрейзер, Дэвид Добкин) [2017 г., Боевик, Драма, Приключения, BDRip 1080p, HEVC, 10bit] MVO (NewStudio) + Original Eng + Sub Eng

Reply to topic
DL-List and Torrent activity
Size:  20.75 GB   |    Registered:  2 months 4 days   |    Completed:  0 times

Seeder not seen: 1 month 24 days

 
 
 
 
Author Message

.:Mercury:. ®

Gender: Male

Longevity: 1 year 5 months

Posts: 3405

Карма: 31947 [+]

Наличие запрета:

[Profile] [PM]

Post 15-May-2019 08:15

[Quote]

В пустыне смерти / Into the Badlands- -Год выпуска: 2017
Страна: США
Жанр: Боевик, Драма, Приключения
Продолжительность: 07:10:56
Перевод: Профессиональный (многоголосый, закадровый) NewStudio (Без рекламы и заставки)--Режиссер:
Пако Кабесас, Тоа Фрейзер, Дэвид Добкин--В ролях:
Дэниэл Ву, Орла Брэйди, Эмили Бичем, Арамис Найт, Элли Иоаннидес, Ник Фрост, Шерман Огастас, Сара Болгер, Оливер Старк, Мадлен Манток--Описание:
Действия второго сезона сериала разворачиваются спустя шесть месяцев после событий финала первого сезона. Санни, ныне «Сборщик», оказывается шахтером, который рабским трудом добывает уголь на шахтах Бордо, вдалеке от Пустыни смерти. В шахтах Санни завязывает дружбу с контрабандистом Бэйджи и начинает планировать побег. В это же время ЭмКей проходит обучение под руководством Авы. Позже ЭмКей встречает Мастера, который обещает ему свободу, если мальчик научится управлять своими способностями и справится с обучением. В Пустыне смерти Райдер, который после смерти отца стал бароном, получил контроль над территориями Куинна, Якоби и Вдовы.
--
S02E001. Chapter VII- Tiger Pushes Mountain
S02E002. Chapter VIII- Force of Eagle's Claw
S02E003. Chapter IX- Red Sun, Silver Moon
S02E004. Chapter X- Palm of the Iron Fox
S02E005. Chapter XI- Monkey Leaps Through Mist
S02E006. Chapter XII- Leopard Stalks in Snow
S02E007. Chapter XIII- Black Heart, White Mountain
S02E008. Chapter XIV- Sting of the Scorpion's Tail
S02E009. Chapter XV- Nightingale Sings No More
S02E010. Chapter XVI- Wolf's Breath, Dragon Fire
--Качество: BDRip 1080p, HEVC, 10bit
Формат: MKV
Видео кодек: H265
Аудио кодек: AC3
Видео: HVC1 1920x1080 23.976fps 10bit 5 817 kb/s
Аудио#1: Dolby AC3 48000Hz 6ch 640kbps | Русский, Многоголосый (NewStudio)
Аудио#2: Dolby AC3 48000Hz 6ch 640kbps | Английский, Оригинал
Субтитры: Английские (Форсированные, авто)
General
Unique ID : 39576276002859541231377915424055014129 (0x1DC61D0E9B350B82BE64EBA8FC4CB2F1)
Complete name : F:\Restored\В пустыне смерти S02\S02E005. Chapter XI- Monkey Leaps Through Mist.mkv
Format : Matroska
Format version : Version 4
File size : 2.20 GiB
Duration : 43 min 31 s
Overall bit rate : 7 241 kb/s
Movie name : Chapter XI: Monkey Leaps Through Mist
Track name/Position : 11/31
Description : Regent Sunny, a highly-skilled fighter and the deadliest "Head Clipper" for Baron Quinn battles the Nomads to rescue a mysterious boy named M.K. who harbors a dark secret about his past. But when he brings him back to The Fort to train as a "Colt", a Clipper-in-training, things quickly get out of hand with another trainee. When first blood is drawn, M.K. loses control of himself as if something takes over his body, making the boy valuable to an opposing baron, The Widow. Meanwhile, Sunny discovers M.K.'s pendant has the same image as the one on his childhood compass of a place called Azra, the boy's home. In order to seek out the truth about his own past, Sunny wants to know more of this city beyond the Badlands, and must find a way out, especially now that his lover Veil is illegally pregnant with his child.
Writing application : XviD4PSP 7.0.479 PRO
Writing library : Lavf57.71.100
Comment : Rip by OldGamer
ErrorDetectionType : Per level 1
Attachments : poster.jpg
ACTORS : Daniel Wu, Orla Brady, Emily Beecham, Aramis Knight
ALBUM : Into the Badlands, Сезон 1-3
COUNTRY : USA
DATE : 2017-04-16
ENCODING_INFO : MATROSKA,WEBM > MKV / H264 > X265 CRF 19.3 Very Slow / AC3 > AC3 CBR 640kbps / DTS-HD MA > AC3 CBR 640kbps
EPISODE_SORT : 5
GENRE : Action, Adventure, Drama
HD_VIDEO : 1
IMDB_RATING : 8.1
ITUNEXTC : us-tv|TV-14|500|
Language : und
MEDIA_TYPE : 10
SEASON_NUMBER : 2
SHOW : Into the Badlands
WRITER : Alfred Gough, Miles Millar
Video
ID : 1
Format : HEVC
Format/Info : High Efficiency Video Coding
Format profile : Main 10@L4.1@High
Codec ID : V_MPEGH/ISO/HEVC
Duration : 43 min 31 s
Bit rate : 5 817 kb/s
Width : 1 920 pixels
Height : 1 080 pixels
Display aspect ratio : 16:9
Frame rate mode : Constant
Frame rate : 23.976 (24000/1001) FPS
Color space : YUV
Chroma subsampling : 4:2:0
Bit depth : 10 bits
Bits/(Pixel*Frame) : 0.117
Stream size : 1.77 GiB (80%)
Title : MPEG-4 AVC Video / 19489 kbps / 1080p / 23.976 fps / 16:9 / High Profile 4.1
Writing library : x265 2.9+9-f74003e88622:[Windows][GCC 8.2.0][64 bit] 10bit
Encoding settings : cpuid=1111039 / frame-threads=13 / numa-pools=12 / wpp / no-pmode / no-pme / no-psnr / no-ssim / log-level=3 / input-csp=1 / input-res=1920x1080 / interlace=0 / total-frames=0 / level-idc=41 / high-tier=1 / uhd-bd=0 / ref=5 / allow-non-conformance / no-repeat-headers / annexb / no-aud / no-hrd / info / hash=0 / no-temporal-layers / open-gop / min-keyint=23 / keyint=240 / gop-lookahead=0 / bframes=16 / b-adapt=2 / b-pyramid / bframe-bias=0 / rc-lookahead=60 / lookahead-slices=6 / scenecut=40 / radl=0 / no-intra-refresh / ctu=64 / min-cu-size=8 / rect / amp / max-tu-size=32 / tu-inter-depth=4 / tu-intra-depth=4 / limit-tu=1 / rdoq-level=2 / dynamic-rd=0.00 / no-ssim-rd / signhide / no-tskip / nr-intra=0 / nr-inter=0 / no-constrained-intra / no-strong-intra-smoothing / max-merge=5 / limit-refs=2 / no-limit-modes / me=3 / subme=7 / merange=57 / temporal-mvp / weightp / weightb / no-analyze-src-pics / deblock=-3:-3 / no-sao / no-sao-non-deblock / rd=6 / no-early-skip / rskip / no-fast-intra / no-tskip-fast / no-cu-lossless / no-b-intra / no-splitrd-skip / rdpenalty=0 / psy-rd=2.00 / psy-rdoq=1.00 / no-rd-refine / no-lossless / cbqpoffs=0 / crqpoffs=0 / rc=crf / crf=19.3 / qcomp=0.72 / qpstep=4 / stats-write=0 / stats-read=0 / vbv-maxrate=50000 / vbv-bufsize=50000 / vbv-init=0.9 / crf-max=0.0 / crf-min=0.0 / ipratio=1.40 / pbratio=1.30 / aq-mode=2 / aq-strength=0.80 / no-cutree / zone-count=0 / no-strict-cbr / qg-size=32 / no-rc-grain / qpmax=69 / qpmin=0 / no-const-vbv / sar=1 / overscan=0 / videoformat=5 / range=0 / colorprim=2 / transfer=2 / colormatrix=2 / chromaloc=0 / display-window=0 / max-cll=0,0 / min-luma=0 / max-luma=1023 / log2-max-poc-lsb=8 / vui-timing-info / vui-hrd-info / slices=1 / no-opt-qp-pps / no-opt-ref-list-length-pps / no-multi-pass-opt-rps / scenecut-bias=0.00 / no-opt-cu-delta-qp / aq-motion / no-hdr / no-hdr-opt / no-dhdr10-opt / no-idr-recovery-sei / analysis-reuse-level=5 / scale-factor=0 / refine-intra=0 / refine-inter=0 / refine-mv=0 / no-limit-sao / ctu-info=0 / no-lowpass-dct / refine-mv-type=0 / copy-pic=1 / max-ausize-factor=1.0 / no-dynamic-refine / no-single-sei
Language : English
Default : Yes
Forced : No
Color range : Limited
Audio #1
ID : 2
Format : AC-3
Format/Info : Audio Coding 3
Commercial name : Dolby Digital
Codec ID : A_AC3
Duration : 43 min 31 s
Bit rate mode : Constant
Bit rate : 640 kb/s
Channel(s) : 6 channels
Channel layout : L R C LFE Ls Rs
Sampling rate : 48.0 kHz
Frame rate : 31.250 FPS (1536 SPF)
Bit depth : 16 bits
Compression mode : Lossy
Stream size : 199 MiB (9%)
Language : Russian
Service kind : Complete Main
Default : Yes
Forced : No
Audio #2
ID : 3
Format : AC-3
Format/Info : Audio Coding 3
Commercial name : Dolby Digital
Codec ID : A_AC3
Duration : 43 min 31 s
Bit rate mode : Constant
Bit rate : 640 kb/s
Channel(s) : 6 channels
Channel layout : L R C LFE Ls Rs
Sampling rate : 48.0 kHz
Frame rate : 31.250 FPS (1536 SPF)
Bit depth : 16 bits
Compression mode : Lossy
Stream size : 199 MiB (9%)
Title : DTS-HD Master Audio / 5.1 / 48 kHz / 3740 kbps / 24-bit
Language : English
Service kind : Complete Main
Default : No
Forced : No
Text
ID : 4
Format : PGS
Codec ID : S_HDMV/PGS
Codec ID/Info : Picture based subtitle format used on BDs/HD-DVDs
Title : SDH
Language : English
Default : Yes
Forced : No
Menu
00:00:00.000 : :Chapter 1
00:02:35.322 : :Chapter 2
00:09:10.759 : :Chapter 3
00:17:22.959 : :Chapter 4
00:23:43.213 : :Chapter 5
00:32:40.417 : :Chapter 6
00:42:27.003 : :Chapter 7

Release was prepared by RG Serials

If your ratio falls below 0.3, you will not be able to download Torrents! More about the rating.

[toptorrent.pw].t5907.torrent
Torrent: Registered [ 2019-05-15 08:15 ] · D4ACDFD2AE72D46BCB31FACB5172685DBA95DB54

Download .torrent

Download

105 KB

Status: checked
Completed: 0 times
Size: 20.75 GB
Rate: 
(Vote: 1)
Has thanked: 1  Thanks   (List)
terms.php
Display posts:    
Reply to topic

Current time is: 20-Jul 06:12

All times are UTC + 5



You cannot post new topics in this forum
You cannot reply to topics in this forum
You cannot edit your posts in this forum
You cannot delete your posts in this forum
You cannot vote in polls in this forum
You cannot attach files in this forum
You can download files in this forum