Детство Шелдона / Young Sheldon / Сезон 2 Полный / Серии 1-22 из 22 (Джаффар Махмуд , Ховард Дойч , Марк Сендроуски) [2018 г., комедия, WEB-DL 1080p] VO (Кураж-Бомбей) + Original Eng + Sub Eng

Reply to topic
DL-List and Torrent activity
Size:  30.48 GB   |    Registered:  21 day   |    Completed:  0 times
Seeders:  1  [  0 KB/s  ]   Leechers:  1  [  0 KB/s  ]   Show peers in full details
 
 
 
 
Author Message

.:Mercury:. ®

Gender: Male

Longevity: 1 year 4 months

Posts: 3323

Карма: 31947 [+]

Наличие запрета:

[Profile] [PM]

Post 29-May-2019 00:43

[Quote]

Детство Шелдона / Young Sheldon- -Год выпуска: 2018
Страна: США
Жанр: комедия
Продолжительность: ~00:20:00
Перевод: Любительский (одноголосый) Кураж-Бомбей
Субтитры: Английские (SDH)--Режиссер: Джаффар Махмуд , Ховард Дойч , Марк Сендроуски--В ролях: Иэн Армитедж Зои Перри Лэнс Барбер Монтана Джордан Реган Реворд Джим Парсонс Энни Поттс Ryan Phuong Уайатт МакКлюр Валери Махафф--Описание: История о непростом детстве вундеркинда Шелдона Купера. Родители юного гения не разделяют увлечения сына наукой: его мать очень религиозна, а отец, бывший футбольный тренер, предпочитает проводить вечера в компании пива и телевизора. Со сверстниками тоже не ладится, ведь Шелдона куда больше детских игрушек интересует, где можно взять обогащённый уран для научных экспериментов.--Качество: WEB-DL 1080p
Формат: MKV
Видео кодек: H.264
Аудио кодек: AC3
Видео: MPEG4 Video (H264) 1920x1080 23.976fps 8 697 kb/s
Аудио: Dolby AC3 48000Hz 6ch 640kbps | Rus, Eng
General
Unique ID : 194160955765783231539593197110273724756 (0x92120A352EFDE2509746E97BC8935154)
Complete name : D:\Сериалы\young_sheldon_s02e01.mkv
Format : Matroska
Format version : Version 2
File size : 1.38 GiB
Duration : 19 min 22 s
Overall bit rate : 10.2 Mb/s
Encoded date : UTC 2018-09-28 18:52:54
Writing application : mkvmerge v4.9.1 ('Ich will') сборка от Jul 11 2011 23:53:15
Writing library : libebml v1.2.1 + libmatroska v1.1.1
Video
ID : 1
Format : AVC
Format/Info : Advanced Video Codec
Format profile : High@L4
Format settings : CABAC / 4 Ref Frames
Format settings, CABAC : Yes
Format settings, ReFrames : 4 frames
Codec ID : V_MPEG4/ISO/AVC
Duration : 19 min 22 s
Bit rate : 8 697 kb/s
Width : 1 920 pixels
Height : 1 080 pixels
Display aspect ratio : 16:9
Frame rate mode : Constant
Frame rate : 23.976 (24000/1001) FPS
Color space : YUV
Chroma subsampling : 4:2:0
Bit depth : 8 bits
Scan type : Progressive
Bits/(Pixel*Frame) : 0.175
Stream size : 1.18 GiB (85%)
Title : Release by EniaHD
Default : Yes
Forced : No
Color range : Limited
Color primaries : BT.709
Transfer characteristics : BT.709
Matrix coefficients : BT.709
Audio #1
ID : 2
Format : AC-3
Format/Info : Audio Coding 3
Commercial name : Dolby Digital
Codec ID : A_AC3
Duration : 19 min 22 s
Bit rate mode : Constant
Bit rate : 640 kb/s
Channel(s) : 6 channels
Channel layout : L R C LFE Ls Rs
Sampling rate : 48.0 kHz
Frame rate : 31.250 FPS (1536 SPF)
Bit depth : 16 bits
Compression mode : Lossy
Stream size : 88.7 MiB (6%)
Title : Кураж-Бамбей
Language : Russian
Service kind : Complete Main
Default : Yes
Forced : No
Audio #2
ID : 3
Format : AC-3
Format/Info : Audio Coding 3
Commercial name : Dolby Digital
Codec ID : A_AC3
Duration : 19 min 22 s
Bit rate mode : Constant
Bit rate : 640 kb/s
Channel(s) : 6 channels
Channel layout : L R C LFE Ls Rs
Sampling rate : 48.0 kHz
Frame rate : 31.250 FPS (1536 SPF)
Bit depth : 16 bits
Compression mode : Lossy
Stream size : 88.7 MiB (6%)
Language : English
Service kind : Complete Main
Default : No
Forced : No
Text
ID : 4
Format : UTF-8
Codec ID : S_TEXT/UTF8
Codec ID/Info : UTF-8 Plain Text
Title : SDH
Language : English
Default : No
Forced : No

Release was prepared by RG Serials

If your ratio falls below 0.3, you will not be able to download Torrents! More about the rating.

[toptorrent.pw].t5955.torrent
Torrent: Registered [ 2019-05-29 00:43 ] · FB8E60033526B0BDF5200775E52ADA2BB62630E7

Download .torrent

Download

154 KB

Status: checked
Completed: 0 times
Size: 30.48 GB
Rate: 
(Vote: 1)
Has thanked: 1  Thanks   (List)
terms.php
Display posts:    
Reply to topic

Current time is: 19-Jun 17:43

All times are UTC + 5



You cannot post new topics in this forum
You cannot reply to topics in this forum
You cannot edit your posts in this forum
You cannot delete your posts in this forum
You cannot vote in polls in this forum
You cannot attach files in this forum
You can download files in this forum