Зона заражения (Горячая зона) / The Hot Zone / Сезон 1 / Серии 1-3 из 6 (Майкл Аппендаль) [2019 г., Драма, Триллер, Фантастика, WEB-DL 1080p] MVO (LostFilm) + Original Eng

Reply to topic
DL-List and Torrent activity
Size:  6.96 GB   |    Registered:  5 days   |    Completed:  0 times
Seeders:  3  [  15 KB/s  ]   Leechers:  2  [  0 KB/s  ]   Show peers in full details
   
 
Author Message

.:Mercury:. ®

Gender: Male

Longevity: 1 year 4 months

Posts: 3323

Карма: 31947 [+]

Наличие запрета:

[Profile] [PM]

Post 31-May-2019 12:07

[Quote]

Зона заражения (Горячая зона) / The Hot Zone- - -Год выпуска: 2019
Страна: США
Жанр: Драма, Триллер, Фантастика
Продолжительность: ~ 01:00:00
Перевод: Профессиональный (многоголосый, закадровый) LostFilm--Режиссер: Майкл Аппендаль--В ролях: Лиам Каннингэм, Джеймс Д’Арси, Ноа Эммерих, Тофер Грейс, Пол Джеймс, Марк Келли, Роберт Шон Леонард, Джулианна Маргулис, Ленни Арройо-Платт, Ник Сирси--Описание: В самолет, летящий в Найроби, с трудом забирается мужчина. Его лицо покрыто пятнами, а кашель не прекращается ни на минуту, что привлекает внимание окружающих. Вернувшись из уборной, мужчина обессиленно падает на кресло, и его тут же настигает приступ кровавой рвоты. По прибытии в Кению его срочно доставляют в больницу, но пациенту становится все хуже. Доктора не понимают, могут ли они что-либо сделать, поскольку никогда не видели ничего подобного. Тем временем в городе Рестон, расположенном недалеко от Вашингтона, погибает треть приматов, содержащихся в лаборатории бактериологического центра армии США. Ученой по имени Нэнси Джакс (Джулианна Маргулис) и ее команде необходимо выяснить, что могло привести к летальному исходу стольких особей разом. Поначалу ее коллеги не видят в случившемся ничего подозрительного, но вскоре Нэнси обнаруживает вспышку Эболы. Теперь отважной ученой предстоит спасти планету от неизвестной болезни, поставив под угрозу собственную жизнь.--Доп. информация: "В мини-сериале производства National Geographic речь идет об одной из самых страшных болезней, с которыми сталкивалось человечество, — лихорадке Эбола. Драма основана на одноименном бестселлере Ричарда Престона 1994 года, который вдохновлялся реальными событиями, произошедшими в 1989-м в США. История ждала экранизации с момента издания книги, и вот теперь, спустя 25 лет, зрители наконец увидят адаптацию в телевизионном формате. Режиссерами «Зоны заражения» выступили Майкл Аппендаль («Касл-Рок», «Легион») и Ник Мерфи («Туман»). Главную роль исполнила Джулианна Маргулис («Пропавшая комната»), а спасать человечество она будет вместе с Тофером Грейсом («Черный клановец»), Ноа Эммериком («Миллиарды»), Лиамом Каннингэмом («Игра престолов») и Джеймсом Д’Арси («Агент Картер»). Своим накалом и стилем драматичный и захватывающий триллер напоминает сериалы «Последний корабль» и «Спираль», а также наглядно показывает, насколько человечество уязвимо перед лицом эпидемий.--Качество: WEB-DL 1080p
Формат: MKV
Видео кодек: H.264
Аудио кодек: AC3
Видео: MPEG4 Video (H264) 1920x1080 23.976fps
Аудио: Dolby AC3 48000Hz stereo 384kbps 2ch | Rus, Eng
General
Unique ID : 206863988046872853839029188709662145357 (0x9BA08E0DE47E7B74AAB1AC158AB93B4D)
Complete name : D:\The.Hot.Zone.S01E01.1080p.rus.LostFilm.TV.mkv
Format : Matroska
Format version : Version 4
File size : 1.96 GiB
Duration : 46 min 21 s
Overall bit rate : 6 067 kb/s
Encoded date : UTC 2019-05-30 23:34:24
Writing application : mkvmerge v9.5.0 ('Quiet Fire') 64bit
Writing library : libebml v1.3.4 + libmatroska v1.4.5
Video
ID : 1
Format : AVC
Format/Info : Advanced Video Codec
Format profile : High@L4.1
Format settings : CABAC / 4 Ref Frames
Format settings, CABAC : Yes
Format settings, Reference fra : 4 frames
Codec ID : V_MPEG4/ISO/AVC
Duration : 46 min 21 s
Bit rate : 5 300 kb/s
Width : 1 920 pixels
Height : 1 080 pixels
Display aspect ratio : 16:9
Frame rate mode : Constant
Frame rate : 23.976 (24000/1001) FPS
Original frame rate : 23.976 (23976/1000) FPS
Color space : YUV
Chroma subsampling : 4:2:0
Bit depth : 8 bits
Scan type : Progressive
Bits/(Pixel*Frame) : 0.107
Stream size : 1.71 GiB (87%)
Writing library : x264 core 112 r1834 a51816a
Encoding settings : cabac=1 / ref=4 / deblock=1:-3:-2 / analyse=0x3:0x113 / me=hex / subme=7 / psy=1 / psy_rd=1.00:0.00 / mixed_ref=1 / me_range=16 / chroma_me=1 / trellis=1 / 8x8dct=1 / cqm=0 / deadzone=21,11 / fast_pskip=1 / chroma_qp_offset=-2 / threads=12 / sliced_threads=0 / nr=0 / decimate=1 / interlaced=0 / constrained_intra=0 / bframes=5 / b_pyramid=2 / b_adapt=1 / b_bias=0 / direct=1 / weightb=1 / open_gop=0 / weightp=2 / keyint=250 / keyint_min=25 / scenecut=40 / intra_refresh=0 / rc_lookahead=40 / rc=2pass / mbtree=1 / bitrate=5300 / ratetol=1.0 / qcomp=0.60 / qpmin=0 / qpmax=51 / qpstep=4 / cplxblur=20.0 / qblur=0.5 / vbv_maxrate=10000 / vbv_bufsize=256000 / ip_ratio=1.40 / aq=1:1.00 / nal_hrd=none
Default : Yes
Forced : No
Audio #1
ID : 2
Format : AC-3
Format/Info : Audio Coding 3
Commercial name : Dolby Digital
Codec ID : A_AC3
Duration : 46 min 20 s
Bit rate mode : Constant
Bit rate : 384 kb/s
Channel(s) : 2 channels
Channel layout : L R
Sampling rate : 48.0 kHz
Frame rate : 31.250 FPS (1536 SPF)
Bit depth : 16 bits
Compression mode : Lossy
Stream size : 127 MiB (6%)
Service kind : Complete Main
Default : Yes
Forced : No
Audio #2
ID : 3
Format : AC-3
Format/Info : Audio Coding 3
Commercial name : Dolby Digital
Codec ID : A_AC3
Duration : 46 min 21 s
Bit rate mode : Constant
Bit rate : 384 kb/s
Channel(s) : 2 channels
Channel layout : L R
Sampling rate : 48.0 kHz
Frame rate : 31.250 FPS (1536 SPF)
Bit depth : 16 bits
Compression mode : Lossy
Stream size : 127 MiB (6%)
Service kind : Complete Main
Default : No
Forced : No

Release was prepared by RG Serials

If your ratio falls below 0.3, you will not be able to download Torrents! More about the rating.

[toptorrent.pw].t5964.torrent
Torrent: Registered [ 2019-06-14 10:28 ] · C84FB0CCB98D35B40B5EE023A09990C430CE09A8

Download .torrent

Download

18 KB

Status: T temporary
Completed: 0 times
Size: 6.96 GB
Rate: 
(Vote: 1)
Has thanked: 1  Thanks   (List)
terms.php


Last edited by .:Mercury:. on 2019-06-14 10:28; edited 1 time in total

.:Mercury:. ®

Gender: Male

Longevity: 1 year 4 months

Posts: 3323

Карма: 31947 [+]

Наличие запрета:

[Profile] [PM]

Post 07-Jun-2019 10:10 (after 6 days)

[Quote]

+2

.:Mercury:. ®

Gender: Male

Longevity: 1 year 4 months

Posts: 3323

Карма: 31947 [+]

Наличие запрета:

[Profile] [PM]

Post 14-Jun-2019 10:28 (after 7 days)

[Quote]

+3
Display posts:    
Reply to topic

Current time is: 19-Jun 18:46

All times are UTC + 5



You cannot post new topics in this forum
You cannot reply to topics in this forum
You cannot edit your posts in this forum
You cannot delete your posts in this forum
You cannot vote in polls in this forum
You cannot attach files in this forum
You can download files in this forum