Игла (Рашид Нугманов) [1988 г., Триллер, Драма, BDRip 1080p HEVC 10bit]

Reply to topic

DL-List and Torrent activity
Size:  2.34 GB   |    Registered:  3 months 18 days   |    Completed:  0 times

Seeder not seen: 2 months 9 days

 
 
 
 
Author Message

.:Mercury:. ®

Gender: Male

Longevity: 1 year 7 months

Posts: 3527

Карма: 31947 [+]

Наличие запрета:

[Profile] [PM]

Post 02-Jun-2019 01:27

[Quote]

Игла- -Год выпуска: 1988
Страна: СССР
Жанр: Триллер, Драма
Продолжительность: 01:16:50
Перевод: Не требуется--Режиссер: Рашид Нугманов--В ролях: Виктор Цой, Марина Смирнова, Петр Мамонов, Александр Баширов, Архимед Искаков, Геннадий Люй, Рахимджан Абдыкадыров, Григорий Эпштейн, Александр Конкс, Райхан Канатбаев--Описание: Вернувшись в Алма-Ату, Моро не хочет, чтобы родители знали о его приезде, и в поисках временного пристанища вспоминает о девушке, которую он когда-то любил. Дина рада встрече, но Моро что-то настораживает в ней. Наблюдая за ее странными знакомыми, Моро понимает, что Дина стала наркоманкой. Как спасти девушку? Моро увозит ее к морю, где Дина начинает выздоравливать. Однако после возвращения в город все начинается сначала. Моро решает расправиться с поставщиками наркотиков…--Качество: BDRip 1080p
Формат: MKV
Видео кодек: H.265
Аудио кодек: DTS
Видео: HЕVC1 1424x1080 25fps 10bit 2 843 kb/s
Аудио: DTS 48000Hz stereo 1536kbps 2ch
General
Unique ID : 235400976043610942345725627177068628687 (0xB1189430D3A6B142A723C121110F8ACF)
Complete name : D:\Игла (1988) HEVC 10bit.mkv
Format : Matroska
Format version : Version 4
File size : 2.34 GiB
Duration : 1 h 16 min
Overall bit rate : 4 354 kb/s
Encoded date : UTC 2019-06-01 17:48:04
Writing application : mkvmerge v9.2.0 ('Photograph') 64bit
Writing library : libebml v1.3.3 + libmatroska v1.4.4
Encoding Gui : Hybrid 2017.05.06.1
Video
ID : 1
Format : HEVC
Format/Info : High Efficiency Video Coding
Format profile : Main 10@L4.1@High
Codec ID : V_MPEGH/ISO/HEVC
Duration : 1 h 16 min
Bit rate : 2 843 kb/s
Width : 1 424 pixels
Height : 1 080 pixels
Display aspect ratio : 4:3
Frame rate mode : Constant
Frame rate : 25.000 FPS
Color space : YUV
Chroma subsampling : 4:2:0
Bit depth : 10 bits
Bits/(Pixel*Frame) : 0.074
Stream size : 1.53 GiB (65%)
Writing library : x265 2.5+5-0b3ba15b33ea:[Windows][GCC 7.2.0][64 bit] 10bit
Encoding settings : cpuid=1050111 / frame-threads=2 / numa-pools=4 / wpp / no-pmode / no-pme / no-psnr / no-ssim / log-level=2 / input-csp=1 / input-res=1424x1080 / interlace=0 / total-frames=0 / level-idc=41 / high-tier=1 / uhd-bd=0 / ref=3 / no-allow-non-conformance / no-repeat-headers / annexb / no-aud / no-hrd / info / hash=0 / no-temporal-layers / open-gop / min-keyint=25 / keyint=250 / bframes=4 / b-adapt=2 / b-pyramid / bframe-bias=0 / rc-lookahead=20 / lookahead-slices=6 / scenecut=40 / no-intra-refresh / ctu=64 / min-cu-size=8 / no-rect / no-amp / max-tu-size=32 / tu-inter-depth=1 / tu-intra-depth=1 / limit-tu=0 / rdoq-level=0 / dynamic-rd=0.00 / no-ssim-rd / signhide / no-tskip / nr-intra=0 / nr-inter=0 / no-constrained-intra / strong-intra-smoothing / max-merge=2 / limit-refs=3 / no-limit-modes / me=1 / subme=2 / merange=57 / temporal-mvp / weightp / no-weightb / no-analyze-src-pics / deblock=-3:-3 / no-sao / no-sao-non-deblock / rd=3 / no-early-skip / rskip / no-fast-intra / no-tskip-fast / no-cu-lossless / no-b-intra / rdpenalty=0 / psy-rd=2.00 / psy-rdoq=0.00 / no-rd-refine / analysis-reuse-mode=0 / no-lossless / cbqpoffs=0 / crqpoffs=0 / rc=crf / crf=20.0 / qcomp=0.60 / qpstep=4 / stats-write=0 / stats-read=0 / vbv-maxrate=50000 / vbv-bufsize=50000 / vbv-init=0.9 / crf-max=0.0 / crf-min=0.0 / ipratio=1.40 / pbratio=1.30 / aq-mode=1 / aq-strength=1.00 / cutree / zone-count=0 / no-strict-cbr / qg-size=32 / no-rc-grain / qpmax=69 / qpmin=0 / no-const-vbv / sar=0 / overscan=0 / videoformat=5 / range=0 / colorprim=2 / transfer=2 / colormatrix=1 / chromaloc=0 / display-window=0 / max-cll=0,0 / min-luma=0 / max-luma=1023 / log2-max-poc-lsb=8 / vui-timing-info / vui-hrd-info / slices=1 / opt-qp-pps / opt-ref-list-length-pps / no-multi-pass-opt-rps / scenecut-bias=0.05 / no-opt-cu-delta-qp / no-aq-motion / no-hdr / no-hdr-opt / no-dhdr10-opt / analysis-reuse-level=5 / scale-factor=0 / refine-intra=0 / refine-inter=0 / refine-mv=0 / no-limit-sao / ctu-info=0
Default : Yes
Forced : Yes
Color range : Limited
Matrix coefficients : BT.709
Audio
ID : 2
Format : DTS
Format/Info : Digital Theater Systems
Codec ID : A_DTS
Duration : 1 h 16 min
Bit rate mode : Constant
Bit rate : 1 509 kb/s
Channel(s) : 2 channels
Channel layout : L R
Sampling rate : 48.0 kHz
Frame rate : 93.750 FPS (512 SPF)
Bit depth : 16 bits
Compression mode : Lossy
Stream size : 829 MiB (35%)
Default : Yes
Forced : No
Menu
00:00:00.000 : :Глава 01
00:07:14.920 : :Глава 02
00:14:38.520 : :Глава 03
00:22:07.760 : :Глава 04
00:34:16.360 : :Глава 05
00:47:08.800 : :Глава 06
00:55:38.800 : :Глава 07
01:05:08.080 : :Глава 08
01:12:47.720 : :Глава 09

Release was prepared by RG Cinema



If your ratio falls below 0.3, you will not be able to download Torrents! More about the rating.

[toptorrent.pw].t5969.torrent
Torrent: Registered [ 2019-06-02 01:27 ] · 96A9B0F97B5470B3A2CBEED5F09F5864CEDD5C95

Download .torrent

Download

24 KB

Status: checked
Completed: 0 times
Size: 2.34 GB
Rate: 
(Vote: 3)
Has thanked: 3  Thanks   (List)
terms.php
Display posts:    
Reply to topic

Current time is: 20-Sep 15:11

All times are UTC + 5



You cannot post new topics in this forum
You cannot reply to topics in this forum
You cannot edit your posts in this forum
You cannot delete your posts in this forum
You cannot vote in polls in this forum
You cannot attach files in this forum
You can download files in this forum