Отмщение / Avengement (Джесси Джонсон) [2019 г., Боевик, криминал, WEB-DLRip-AVC] MVO

Reply to topic
DL-List and Torrent activity
Size:  1.69 GB   |    Registered:  17 days   |    Completed:  1 time
Seeders:  1  [  13 KB/s  ]   Show peers in full details
 
 
 
 
Author Message

_Deimos_ ®

VIP пользователь

Gender: Male

Longevity: 1 year 4 months

Posts: 365

Карма: 33000 [+]

Location: Топторрент

Наличие запрета:

[Profile] [PM]

Post 02-Jun-2019 15:50

[Quote]

Отмщение-
--Год выпуска: 2019
Страна: Великобритания
Жанр: Боевик, криминал
Продолжительность: 01:28:00
Перевод: Профессиональный многоголосый [HDRezka Studio]--Режиссёр: Джесси Джонсон--В ролях: Скотт Эдкинс, Крэйг Фэйрбрасс, Томас Тургус, Ник Моран, Кирстон Вэрэйнг, Лео Грегори, Бо Фаулер, Луис Мэндилор, Теренс Мэйнард, Росс О'Хеннесси-- : Преступнику дают в тюрьме отгул, во время которого он сбегает из-под наблюдения и начинает мстить людям, которые сделали его хладнокровным убийцей.-- Качество: WEB-DLRip-AVC
Формат видео: MKV
Видео: H.264, 1024x432, 23.976 fps, 2164 kb/s
Аудио 1: AC3, 48.0 kHz, 2 channels, 192 kb/s (Русский)
Аудио 2: AC3, 48.0 kHz, 6 channels, 384 kb/s (Английский)--

Рейтинг фильма --
General
Unique ID : 180090799827910852267355280684552485608 (0x877C39F5FCCFFD608D463A247E1AFAE8)
Complete name : G:\Kino\Otmshenie.2019.WEB-DLRip.(AVC).mkv
Format : Matroska
Format version : Version 4 / Version 2
File size : 1.69 GiB
Duration : 1 h 28 min
Overall bit rate : 2 742 kb/s
Encoded date : UTC 2019-05-31 17:02:14
Writing application : mkvmerge v8.3.0 ('Over the Horizon') 64bit
Writing library : libebml v1.3.1 + libmatroska v1.4.2
Video
ID : 1
Format : AVC
Format/Info : Advanced Video Codec
Format profile : High@L4.1
Format settings, CABAC : Yes
Format settings, RefFrames : 11 frames
Codec ID : V_MPEG4/ISO/AVC
Duration : 1 h 28 min
Bit rate : 2 164 kb/s
Width : 1 024 pixels
Height : 432 pixels
Display aspect ratio : 2.40:1
Frame rate mode : Constant
Frame rate : 23.976 (24000/1001) FPS
Color space : YUV
Chroma subsampling : 4:2:0
Bit depth : 8 bits
Scan type : Progressive
Bits/(Pixel*Frame) : 0.204
Stream size : 1.33 GiB (79%)
Writing library : x264 core 146 r2538 121396c
Encoding settings : cabac=1 / ref=11 / deblock=1:0:0 / analyse=0x3:0x111 / me=umh / subme=9 / psy=1 / psy_rd=1.00:0.20 / mixed_ref=1 / me_range=16 / chroma_me=1 / trellis=2 / 8x8dct=1 / cqm=0 / deadzone=21,11 / fast_pskip=1 / chroma_qp_offset=-3 / threads=6 / lookahead_threads=1 / sliced_threads=0 / nr=0 / decimate=1 / interlaced=0 / bluray_compat=0 / constrained_intra=0 / bframes=2 / b_pyramid=2 / b_adapt=2 / b_bias=0 / direct=3 / weightb=1 / open_gop=0 / weightp=2 / keyint=250 / keyint_min=23 / scenecut=40 / intra_refresh=0 / rc_lookahead=50 / rc=2pass / mbtree=1 / bitrate=2164 / ratetol=1.0 / qcomp=0.60 / qpmin=0 / qpmax=69 / qpstep=4 / cplxblur=20.0 / qblur=0.5 / ip_ratio=1.40 / aq=1:1.00
Default : Yes
Forced : No
Audio #1
ID : 2
Format : AC-3
Format/Info : Audio Coding 3
Format settings, Endianness : Big
Codec ID : A_AC3
Duration : 1 h 28 min
Bit rate mode : Constant
Bit rate : 192 kb/s
Channel(s) : 2 channels
Channel positions : Front: L R
Sampling rate : 48.0 kHz
Frame rate : 31.250 FPS (1536 SPF)
Bit depth : 16 bits
Compression mode : Lossy
Stream size : 121 MiB (7%)
Title : MVO [HDRezka Studio]
Language : Russian
Service kind : Complete Main
Default : Yes
Forced : No
Audio #2
ID : 3
Format : AC-3
Format/Info : Audio Coding 3
Format settings, Endianness : Big
Codec ID : A_AC3
Duration : 1 h 28 min
Bit rate mode : Constant
Bit rate : 384 kb/s
Channel(s) : 6 channels
Channel positions : Front: L C R, Side: L R, LFE
Sampling rate : 48.0 kHz
Frame rate : 31.250 FPS (1536 SPF)
Bit depth : 16 bits
Compression mode : Lossy
Stream size : 242 MiB (14%)
Service kind : Complete Main
Default : No
Forced : No

Release was prepared by RG Cinema

If your ratio falls below 0.3, you will not be able to download Torrents! More about the rating.

[toptorrent.pw].t5971.torrent
Torrent: Registered [ 2019-06-02 15:50 ] · 440BC4C607A4B67741CA8EAE721781C1C3995438

Download .torrent

Download

17 KB

Status: checked
Completed: 1 times
Size: 1.69 GB
Rate: 
(Vote: 2)
Has thanked: 2  Thanks   (List)
terms.php
Display posts:    
Reply to topic

Current time is: 19-Jun 18:17

All times are UTC + 5



You cannot post new topics in this forum
You cannot reply to topics in this forum
You cannot edit your posts in this forum
You cannot delete your posts in this forum
You cannot vote in polls in this forum
You cannot attach files in this forum
You can download files in this forum