Обет молчания / Acts of Vengeance (Айзек Флорентайн) [2017 г., Боевик, драма, BDRip] DUB [iTunes]

Reply to topic

DL-List and Torrent activity
Size:  1.42 GB   |    Registered:  3 months 15 days   |    Completed:  0 times

Seeder not seen: 1 month 18 days

 
 
 
 
Author Message

_Deimos_ ®

VIP пользователь

Gender: Male

Longevity: 1 year 7 months

Posts: 379

Карма: 33000 [+]

Наличие запрета:

[Profile] [PM]

Post 03-Jun-2019 14:02

[Quote]

Обет молчания-
--Год выпуска: 2017
Страна: Болгария, США
Жанр: Боевик, драма
Продолжительность: 01:27:20
Перевод: Профессиональный дублирование [iTunes]--Режиссёр: Айзек Флорентайн--В ролях: Антонио Бандерас, Кристина Серафини, Атанас Сребрев, Карл Урбан, Пас Вега, Роберт Форстер, Лиллиэн Бланкеншип, Марк Смит, Дэвид Сакурай, Айзек Флорентайн-- : Успешный адвокат и счастливый семьянин Фрэнк в один миг теряет жену и дочь. Произошло жестокое убийство, но расследование не продвинулось ни на шаг. Теперь у юриста в жизни одна цель: найти настоящих убийц. Он начинает собственное расследование. Взяв правосудие в свои руки, он клянется, что не произнесет ни слова до тех пор, пока не отомстит за семью.-- Качество: BDRip
Формат видео: AVI
Видео: Xvid, 704x384, 23.976 fps, 1937 kb/s
Аудио 1: AC3, 48.0 kHz, 6 channels, 384 kb/s--

Рейтинг фильма --
General
Complete name : F:\Kino\Боевики\Обет молчания. 2017.avi
Format : AVI
Format/Info : Audio Video Interleave
File size : 1.42 GiB
Duration : 1 h 27 min
Overall bit rate : 2 330 kb/s
Writing application : VirtualDubMod 1.5.10.2 (build 2540/release)
Writing library : VirtualDubMod build 2540/release
Video
ID : 0
Format : MPEG-4 Visual
Format profile : Advanced Simple@L5
Format settings, BVOP : 1
Format settings, QPel : No
Format settings, GMC : No warppoints
Format settings, Matrix : Custom
Codec ID : XVID
Codec ID/Hint : XviD
Duration : 1 h 27 min
Bit rate : 1 937 kb/s
Width : 704 pixels
Height : 384 pixels
Display aspect ratio : 1.85:1
Frame rate : 23.976 (24000/1001) FPS
Color space : YUV
Chroma subsampling : 4:2:0
Bit depth : 8 bits
Scan type : Progressive
Compression mode : Lossy
Bits/(Pixel*Frame) : 0.299
Stream size : 1.18 GiB (83%)
Writing library : XviD 73
Audio
ID : 1
Format : AC-3
Format/Info : Audio Coding 3
Format settings, Endianness : Big
Codec ID : 2000
Duration : 1 h 27 min
Bit rate mode : Constant
Bit rate : 384 kb/s
Channel(s) : 6 channels
Channel positions : Front: L C R, Side: L R, LFE
Sampling rate : 48.0 kHz
Frame rate : 31.250 FPS (1536 SPF)
Bit depth : 16 bits
Compression mode : Lossy
Stream size : 240 MiB (16%)
Alignment : Split accross interleaves
Interleave, duration : 42 ms (1.00 video frame)
Interleave, preload duration : 500 ms
Service kind : Complete Main

Release was prepared by RG Cinema



If your ratio falls below 0.3, you will not be able to download Torrents! More about the rating.

[toptorrent.pw].t5987.torrent
Torrent: Registered [ 2019-06-03 14:02 ] · C908E3A8947156C27C5A05B533DB8FE7DD24680B

Download .torrent

Download

15 KB

Status: checked
Completed: 0 times
Size: 1.42 GB
Rate: 
(Vote: 1)
Has thanked: 1  Thanks   (List)
terms.php
Display posts:    
Reply to topic

Current time is: 18-Sep 16:16

All times are UTC + 5



You cannot post new topics in this forum
You cannot reply to topics in this forum
You cannot edit your posts in this forum
You cannot delete your posts in this forum
You cannot vote in polls in this forum
You cannot attach files in this forum
You can download files in this forum