Падение Лондона / London Has Fallen (Бабак Наджафи) [2016 г., Боевик, триллер, криминал, WEB-DLRip] DUB [iTunes]

Reply to topic

DL-List and Torrent activity
Size:  1.37 GB   |    Registered:  4 months 12 days   |    Completed:  0 times

Seeder not seen: 2 months 15 days

 
 
 
 
Author Message

_Deimos_ ®

VIP пользователь

Gender: Male

Longevity: 1 year 8 months

Posts: 379

Карма: 33000 [+]

Наличие запрета:

[Profile] [PM]

Post 03-Jun-2019 14:27

[Quote]

Падение Лондона-
--Год выпуска: 2016
Страна: США Великобритания ...
Жанр: Боевик, триллер, криминал
Продолжительность: 01:38:24
Перевод: Профессиональный дублирование [iTunes]--Режиссёр: Бабак Наджафи--В ролях: Джерард Батлер, Аарон Экхарт, Морган Фриман, Алон Абутбул, Валид Зуэйтер, Адель Беншериф, Мехди Дехби, Шивани Гаи, Оуэн Дэвис, Майкл Уилдман, Рада Митчелл, Стэйси Шэйн-- : Действие фильма начинается в Лондоне, где премьер-министр Великобритании погибает при загадочных обстоятельствах. На похоронах безусловно присутствуют руководители западного мира. Но то, что начиналось как наиболее безопасное событие на земле, превращается в опаснейшее покушение на самых мощных мировых лидеров, что в свою очередь ставит под угрозу будущее всего мира. Только три человека сохраняют надежду на предотвращение катастрофы: президент США, его верный помощник - агент спецслужбы и английский агент МИ-6, который никому не доверяет.-- Качество: WEB-DLRip
Формат видео: AVI
Видео: Xvid, 720x304, 24 fps, 1595 kb/s
Аудио 1: AC3, 48.0 kHz, 6 channels, 384 kb/s--

Рейтинг фильма --
General
Complete name : F:\Kino\Боевики\Падение Лондона. 2016.avi
Format : AVI
Format/Info : Audio Video Interleave
File size : 1.37 GiB
Duration : 1 h 38 min
Overall bit rate : 1 988 kb/s
Writing application : VirtualDubMod 1.5.10.2 (build 2540/release)
Writing library : VirtualDubMod build 2540/release
Video
ID : 0
Format : MPEG-4 Visual
Format profile : Advanced Simple@L5
Format settings, BVOP : 2
Format settings, QPel : No
Format settings, GMC : No warppoints
Format settings, Matrix : Default (MPEG)
Codec ID : XVID
Codec ID/Hint : XviD
Duration : 1 h 38 min
Bit rate : 1 595 kb/s
Width : 720 pixels
Height : 304 pixels
Display aspect ratio : 2.35:1
Frame rate : 24.000 FPS
Color space : YUV
Chroma subsampling : 4:2:0
Bit depth : 8 bits
Scan type : Progressive
Compression mode : Lossy
Bits/(Pixel*Frame) : 0.304
Stream size : 1.10 GiB (80%)
Writing library : XviD 1.2.1 (UTC 2008-12-04)
Audio
ID : 1
Format : AC-3
Format/Info : Audio Coding 3
Format settings, Endianness : Big
Codec ID : 2000
Duration : 1 h 38 min
Bit rate mode : Constant
Bit rate : 384 kb/s
Channel(s) : 6 channels
Channel positions : Front: L C R, Side: L R, LFE
Sampling rate : 48.0 kHz
Frame rate : 31.250 FPS (1536 SPF)
Bit depth : 16 bits
Compression mode : Lossy
Stream size : 270 MiB (19%)
Alignment : Split accross interleaves
Interleave, duration : 42 ms (1.00 video frame)
Interleave, preload duration : 500 ms
Service kind : Complete Main

Release was prepared by RG Cinema



If your ratio falls below 0.3, you will not be able to download Torrents! More about the rating.

[toptorrent.pw].t5988.torrent
Torrent: Registered [ 2019-06-03 14:27 ] · DF51E5BBD650A297FA7B1E0F06FAE13CE214E8E0

Download .torrent

Download

14 KB

Status: checked
Completed: 0 times
Size: 1.37 GB
Rate: 
(Vote: 1)
Has thanked: 1  Thanks   (List)
terms.php
Display posts:    
Reply to topic

Current time is: 15-Oct 14:29

All times are UTC + 5



You cannot post new topics in this forum
You cannot reply to topics in this forum
You cannot edit your posts in this forum
You cannot delete your posts in this forum
You cannot vote in polls in this forum
You cannot attach files in this forum
You can download files in this forum