Пароль «Рыба-меч» / Swordfish (Доминик Сена) [2001 г., Боевик, Триллер, Детектив, HDRip] DUB

Reply to topic
DL-List and Torrent activity
Size:  1.46 GB   |    Registered:  15 days   |    Completed:  0 times
Seeders:  1  [  0 KB/s  ]   Show peers in full details
 
 
 
 
Author Message

_Deimos_ ®

VIP пользователь

Gender: Male

Longevity: 1 year 4 months

Posts: 365

Карма: 33000 [+]

Location: Топторрент

Наличие запрета:

[Profile] [PM]

Post 03-Jun-2019 18:50

[Quote]

Пароль «Рыба-меч»-
--Год выпуска: 2016
Страна: США ...
Жанр: Боевик, Триллер, Детектив
Продолжительность: 01:39:18
Перевод: Профессиональный дублирование--Режиссёр: Доминик Сена--В ролях: Джон Траволта, Хью Джекман, Холли Берри, Дон Чидл, Сэм Шепард, Винни Джонс, Дреа де Маттео, Рудольф Мартин, Зэк Гренье, Камрин Граймс-- : Один из самых опасных шпионов в мире - харизматичный Гэбриэл Шир - работавший когда-то на ЦРУ, а ныне ставший гениальным преступником, задумывает украсть 9 миллиардов долларов из нелегальных правительственных фондов. Для этого ему нужны помощь суперхакера, способного взломать систему безопасности любой компьютерной сети. Таким умельцем является Стенли Джобсон, который недавно отсидел срок за взлом ФБР. В результате Джобсон остался без гроша, без любимого занятия, а главное - без любимой дочери Холли. Гэбриэл и его очаровательная партнёрша Джинжер заманивают Стэнли в своё дерзкое предприятие, обещая хакеру то, от чего он не может отказаться - в обмен на выполненную работу он получит опекунство над дочерью и шанс начать новую жизнь. Однако, взявшись за реализацию этой сложной и рискованной операции, Стэнли вдруг понимает, что он лишь пешка в большой игре…-- Качество: HDRip
Формат видео: AVI
Видео: Xvid, 720x304, 23.976 fps, 1645 kb/s
Аудио 1: AC3, 48.0 kHz, 6 channels, 448 kb/s--

Рейтинг фильма --
General
Complete name : F:\Kino\Боевики\Пароль рыба меч. 2001.avi
Format : AVI
Format/Info : Audio Video Interleave
File size : 1.46 GiB
Duration : 1 h 39 min
Overall bit rate : 2 102 kb/s
Movie name : Пароль "Рыба-меч" / Swordfish (2001)
Director : SENATOR (HDRip 1080)
Writing application : VirtualDubMod 1.5.10.2 (build 2540/release)
Copyright : HQ-ViDEO (www.hq-video.ru)
Comment : 02.09.2008
Video
ID : 0
Format : MPEG-4 Visual
Format profile : Advanced Simple@L5
Format settings, BVOP : 2
Format settings, QPel : No
Format settings, GMC : No warppoints
Format settings, Matrix : Default (MPEG)
Muxing mode : Packed bitstream
Codec ID : XVID
Codec ID/Hint : XviD
Duration : 1 h 39 min
Bit rate : 1 645 kb/s
Width : 720 pixels
Height : 304 pixels
Display aspect ratio : 2.35:1
Frame rate : 23.976 (24000/1001) FPS
Color space : YUV
Chroma subsampling : 4:2:0
Bit depth : 8 bits
Scan type : Progressive
Compression mode : Lossy
Bits/(Pixel*Frame) : 0.314
Stream size : 1.14 GiB (78%)
Writing library : XviD 1.2.0.dev47 (UTC 2006-11-01)
Audio
ID : 1
Format : AC-3
Format/Info : Audio Coding 3
Format settings, Endianness : Big
Codec ID : 2000
Duration : 1 h 39 min
Bit rate mode : Constant
Bit rate : 448 kb/s
Channel(s) : 6 channels
Channel positions : Front: L C R, Side: L R, LFE
Sampling rate : 48.0 kHz
Frame rate : 31.250 FPS (1536 SPF)
Bit depth : 16 bits
Compression mode : Lossy
Stream size : 318 MiB (21%)
Alignment : Split accross interleaves
Interleave, duration : 42 ms (1.00 video frame)
Interleave, preload duration : 500 ms
Service kind : Complete Main

Release was prepared by RG Cinema

If your ratio falls below 0.3, you will not be able to download Torrents! More about the rating.

[toptorrent.pw].t5989.torrent
Torrent: Registered [ 2019-06-03 18:50 ] · C9F69DF4609EC9EAE50939EDE589372E1D84D6CB

Download .torrent

Download

15 KB

Status: checked
Completed: 0 times
Size: 1.46 GB
Rate: 
(Vote: 1)
Has thanked: 1  Thanks   (List)
terms.php
Display posts:    
Reply to topic

Current time is: 19-Jun 17:55

All times are UTC + 5



You cannot post new topics in this forum
You cannot reply to topics in this forum
You cannot edit your posts in this forum
You cannot delete your posts in this forum
You cannot vote in polls in this forum
You cannot attach files in this forum
You can download files in this forum