Репликант / Replicant (Ринго Лам) [2001 г., Фантастика, боевик, триллер, BDRip] MVO

Reply to topic
DL-List and Torrent activity
Size:  743 MB   |    Registered:  15 days   |    Completed:  0 times
Seeders:  1  [  0 KB/s  ]   Show peers in full details
 
 
 
 
Author Message

_Deimos_ ®

VIP пользователь

Gender: Male

Longevity: 1 year 4 months

Posts: 365

Карма: 33000 [+]

Location: Топторрент

Наличие запрета:

[Profile] [PM]

Post 03-Jun-2019 19:31

[Quote]

Репликант / Replicant- --Год выпуска: 2001
Страна: США
Жанр: Фантастика, боевик, триллер
Продолжительность: 01:41:01
Перевод: Профессиональный многоголосый--Режиссёр: Ринго Лам--В ролях: Жан-Клод Ван Дамм, Майкл Рукер, Катрин Дент, Брэндон Джеймс Олсон, Пэм Хайатт, Йен Робисан, Аллан Грэй, Джеймс Хатсон, Джейми Нокс, Пол МакДжиллион-- : Полиция сбилась с ног, разыскивая серийного убийцу, совершившего более десятка нападений на одиноких матерей с детьми. Безжалостный маньяк оставляет на месте преступления всегда одно и то же — истерзанный и сожженный труп женщины и практически никаких улик, позволяющих выйти на его след. На помощь полиции приходит национальная служба безопасности, по заданию которой ученые, используя один-единственный волос убийцы, найденный на месте преступления, создали его генетического двойника — репликанта.
Специалисты полагают, что клон, благодаря генетической памяти, способен вывести их на след оригинала. Провести операцию поручают полицейскому Джейку, который долго и безуспешно преследовал маньяка и даже стал его личным врагом. Сможет ли Джейк с помощью своего подопечного — репликанта — найти и обезвредить опасного преступника или же «голос крови» победит и в городе появится еще один близнец-убийца?…-- Качество: BDRip
Формат видео: AVI
Видео: Xvid, 656x368, 23.976 fps, 891 kb/s
Аудио: MP3, 48.0 kHz, 2 channels, 128 kb/s--

Рейтинг фильма --
General
Complete name : F:\Kino\Боевики\Репликант. 2001.avi
Format : AVI
Format/Info : Audio Video Interleave
File size : 743 MiB
Duration : 1 h 41 min
Overall bit rate : 1 028 kb/s
Writing application : VirtualDubMod 1.5.10.2 (build 2540/release)
Writing library : VirtualDubMod build 2540/release
Video
ID : 0
Format : MPEG-4 Visual
Format profile : Advanced Simple@L5
Format settings, BVOP : 1
Format settings, QPel : No
Format settings, GMC : No warppoints
Format settings, Matrix : Default (H.263)
Codec ID : XVID
Codec ID/Hint : XviD
Duration : 1 h 41 min
Bit rate : 891 kb/s
Width : 656 pixels
Height : 368 pixels
Display aspect ratio : 16:9
Frame rate : 23.976 (24000/1001) FPS
Color space : YUV
Chroma subsampling : 4:2:0
Bit depth : 8 bits
Scan type : Progressive
Compression mode : Lossy
Bits/(Pixel*Frame) : 0.154
Stream size : 644 MiB (87%)
Writing library : XviD 1.2.1 (UTC 2008-12-04)
Audio
ID : 1
Format : MPEG Audio
Format version : Version 1
Format profile : Layer 3
Codec ID : 55
Codec ID/Hint : MP3
Duration : 1 h 41 min
Bit rate mode : Constant
Bit rate : 128 kb/s
Channel(s) : 2 channels
Sampling rate : 48.0 kHz
Compression mode : Lossy
Stream size : 92.5 MiB (12%)
Alignment : Aligned on interleaves
Interleave, duration : 42 ms (1.00 video frame)
Interleave, preload duration : 504 ms
Writing library : LAME3.98r
Encoding settings : -m s -V 4 -q 2 -lowpass 17 -b 128

Release was prepared by RG Cinema

If your ratio falls below 0.3, you will not be able to download Torrents! More about the rating.

[toptorrent.pw].t5990.torrent
Torrent: Registered [ 2019-06-03 19:31 ] · 548B279AC5C15BC5678EC95D974E043AFE7FEB33

Download .torrent

Download

15 KB

Status: checked
Completed: 0 times
Size: 743 MB
Rate: 
(Vote: 1)
Has thanked: 1  Thanks   (List)
terms.php
Display posts:    
Reply to topic

Current time is: 19-Jun 18:29

All times are UTC + 5



You cannot post new topics in this forum
You cannot reply to topics in this forum
You cannot edit your posts in this forum
You cannot delete your posts in this forum
You cannot vote in polls in this forum
You cannot attach files in this forum
You can download files in this forum