Болотная <~> / Swamp Thing / Сезон 1 / Серии 1-3 из 10 (Лен Уайзман, Кэрол Бенкер, Тоа Фрейзер) [2019 г., Драма, Фантастика, WEB-DL 1080p] MVO (LostFilm) + Original Eng

Reply to topic
DL-List and Torrent activity
Size:  8.48 GB   |    Registered:  2 days   |    Completed:  0 times
Seeders:  9  [  81 KB/s  ]   Leechers:  2  [  0 KB/s  ]   Show peers in full details
   
 
Author Message

.:Mercury:. ®

Gender: Male

Longevity: 1 year 4 months

Posts: 3323

Карма: 31947 [+]

Наличие запрета:

[Profile] [PM]

Post 04-Jun-2019 07:45

[Quote]

Болотная <~> / Swamp Thing- - -Год выпуска: 2019
Страна: США
Жанр: Драма, Фантастика
Продолжительность: ~ 01:00:00
Перевод: Профессиональный (многоголосый, закадровый) LostFilm--Режиссер: Лен Уайзман, Кэрол Бенкер, Тоа Фрейзер--В ролях: Кристал Рид, Энди Бин, Дерек Мирс, Хендерсон Вэйд, Дженнифер Билз, Вирджиния Мэдсен, Уилл Пэттон, Мария Стэн, Селена Андусе, Кевин Дюран--Описание: Микробиолог Эбби Аркейн (Кристал Рид) возвращается в родной город Марэ, что в штате Луизиана, расследовать вспышку неизвестного вируса. Там она знакомится с эксцентричным ученым, не признающим авторитетов, по имени Алек Холланд (Энди Бин). Он уверен, что источником предполагаемого вируса является городское болото, поскольку уже давно за ним наблюдает и выявил его сверхъестественные свойства, жертвой которых ему еще предстоит стать. Объединив усилия, Эбби и Алек начинают проводить собственные исследования в лаборатории с целью разгадать тайну самого таинственного места в Марэ. Они еще не знают, что именно оно станет местом рождения ужасного существа по прозвищу Болотная <~>…--Доп. информация: og:description" content="Вслед за мрачной супергероикой «Титаны» и абсурдной комедией «Роковой патруль» стриминговый сервис DC Universe представляет свой третий оригинальный проект. «Болотная <~>» отличается от многих телеэкранизаций комиксов в первую очередь за счет резкого жанрового уклона. Сериал не заинтересован идти протоптанной супергеройской тропой. Вместо этого «Болотная <~>» врывается на территорию хоррора с эффектностью, достойной самого Джона Карпентера. Не зря среди создателей шоу числится сам Джеймс Ван, возможно, главный современный хоррор-мейкер на планете. А одним из шоураннеров является Гари Доберман, написавший сценарии ко всем частям «Проклятия Аннабель» и дилогии «Оно» Андреса Мускетти. Однако при всем этом «Болотная <~>» напоминает скорее классический боди-хоррор «Нечто» с визуальными решениями в лучших традициях южной готики и обилием качественных практических эффектов. --Качество: WEB-DL 1080p
Формат: MKV
Видео кодек: H.264
Аудио кодек: AC3
Видео: MPEG4 Video (H264) 1920x1080 23.976fps 6 800 kb/s
Аудио: Dolby AC3 48000Hz stereo 384kbps 2ch | Rus, Eng
General
Unique ID : 244541937139404756597568877859544355085 (0xB7F9105E5734D0959BC1228B4B6DD10D)
Complete name : D:\Swamp.Thing.S01E01.1080p.rus.LostFilm.TV.mkv
Format : Matroska
Format version : Version 4
File size : 3.17 GiB
Duration : 59 min 52 s
Overall bit rate : 7 568 kb/s
Encoded date : UTC 2019-06-03 20:29:30
Writing application : mkvmerge v9.5.0 ('Quiet Fire') 64bit
Writing library : libebml v1.3.4 + libmatroska v1.4.5
Video
ID : 1
Format : AVC
Format/Info : Advanced Video Codec
Format profile : High@L4.1
Format settings : CABAC / 4 Ref Frames
Format settings, CABAC : Yes
Format settings, Reference fra : 4 frames
Codec ID : V_MPEG4/ISO/AVC
Duration : 59 min 52 s
Bit rate : 6 800 kb/s
Width : 1 920 pixels
Height : 1 080 pixels
Display aspect ratio : 16:9
Frame rate mode : Constant
Frame rate : 23.976 (24000/1001) FPS
Original frame rate : 23.976 (23976/1000) FPS
Color space : YUV
Chroma subsampling : 4:2:0
Bit depth : 8 bits
Scan type : Progressive
Bits/(Pixel*Frame) : 0.137
Stream size : 2.84 GiB (90%)
Writing library : x264 core 112 r1834 a51816a
Encoding settings : cabac=1 / ref=4 / deblock=1:-3:-2 / analyse=0x3:0x113 / me=hex / subme=7 / psy=1 / psy_rd=1.00:0.00 / mixed_ref=1 / me_range=16 / chroma_me=1 / trellis=1 / 8x8dct=1 / cqm=0 / deadzone=21,11 / fast_pskip=1 / chroma_qp_offset=-2 / threads=12 / sliced_threads=0 / nr=0 / decimate=1 / interlaced=0 / constrained_intra=0 / bframes=5 / b_pyramid=2 / b_adapt=1 / b_bias=0 / direct=1 / weightb=1 / open_gop=0 / weightp=2 / keyint=250 / keyint_min=25 / scenecut=40 / intra_refresh=0 / rc_lookahead=40 / rc=2pass / mbtree=1 / bitrate=6800 / ratetol=1.0 / qcomp=0.60 / qpmin=0 / qpmax=51 / qpstep=4 / cplxblur=20.0 / qblur=0.5 / vbv_maxrate=10000 / vbv_bufsize=256000 / ip_ratio=1.40 / aq=1:1.00 / nal_hrd=none
Default : Yes
Forced : No
Audio #1
ID : 2
Format : AC-3
Format/Info : Audio Coding 3
Commercial name : Dolby Digital
Codec ID : A_AC3
Duration : 59 min 52 s
Bit rate mode : Constant
Bit rate : 384 kb/s
Channel(s) : 2 channels
Channel layout : L R
Sampling rate : 48.0 kHz
Frame rate : 31.250 FPS (1536 SPF)
Bit depth : 16 bits
Compression mode : Lossy
Stream size : 164 MiB (5%)
Service kind : Complete Main
Default : Yes
Forced : No
Audio #2
ID : 3
Format : AC-3
Format/Info : Audio Coding 3
Commercial name : Dolby Digital
Codec ID : A_AC3
Duration : 59 min 52 s
Bit rate mode : Constant
Bit rate : 384 kb/s
Channel(s) : 2 channels
Channel layout : L R
Sampling rate : 48.0 kHz
Frame rate : 31.250 FPS (1536 SPF)
Bit depth : 16 bits
Compression mode : Lossy
Stream size : 164 MiB (5%)
Service kind : Complete Main
Default : No
Forced : No

Release was prepared by RG Serials

If your ratio falls below 0.3, you will not be able to download Torrents! More about the rating.

[toptorrent.pw].t5991.torrent
Torrent: Registered [ 2019-06-17 17:24 ] · BEBFC4116FBEA3FB74D1F8E8258C38234FED0138

Download .torrent

Download

22 KB

Status: T temporary
Completed: 0 times
Size: 8.48 GB
Rate: 
(Vote: 1)
Has thanked: 1  Thanks   (List)
terms.php


Last edited by .:Mercury:. on 2019-06-17 17:24; edited 1 time in total

.:Mercury:. ®

Gender: Male

Longevity: 1 year 4 months

Posts: 3323

Карма: 31947 [+]

Наличие запрета:

[Profile] [PM]

Post 10-Jun-2019 10:22 (after 6 days)

[Quote]

+2

.:Mercury:. ®

Gender: Male

Longevity: 1 year 4 months

Posts: 3323

Карма: 31947 [+]

Наличие запрета:

[Profile] [PM]

Post 17-Jun-2019 17:25 (after 7 days)

[Quote]

+3
Display posts:    
Reply to topic

Current time is: 19-Jun 17:50

All times are UTC + 5



You cannot post new topics in this forum
You cannot reply to topics in this forum
You cannot edit your posts in this forum
You cannot delete your posts in this forum
You cannot vote in polls in this forum
You cannot attach files in this forum
You can download files in this forum