Предприятие «Вечная благодать» / Perpetual Grace, LTD. / Сезон 1 / Серии 1-3 из 10 (Стив Конрад, Джим Уайтакер) [2019 г., Драма, WEB-DL 1080p] MVO (LostFilm) + Original Eng

Reply to topic
DL-List and Torrent activity
Size:  7.98 GB   |    Registered:  8 hours   |    Completed:  0 times
Seeders:  1  [  1 MB/s  ]   Leechers:  4  [  0 KB/s  ]   Show peers in full details
 
 
 
 
Author Message

.:Mercury:. ®

Gender: Male

Longevity: 1 year 4 months

Posts: 3323

Карма: 31947 [+]

Наличие запрета:

[Profile] [PM]

Post 06-Jun-2019 08:22

[Quote]

Предприятие «Вечная благодать» / Perpetual Grace, LTD.- - -Год выпуска: 2019
Страна: США
Жанр: Драма
Продолжительность: ~00:55:00
Перевод: Профессиональный (многоголосый, закадровый) LostFilm--Режиссер: Стив Конрад, Джим Уайтакер--В ролях: Джимми Симпсон, Бен Кингсли, Джеки Уивер, Луис Гусман, Дэймон Херриман, Крис Конрад, Дэна ДеЛоренцо, Дэш Уильямс, Элиана Х. Александр, Майкл Чернус--Описание: Иногда чтобы вернуть свое или отомстить обидчикам, люди готовы на самые отчаянные поступки. Пастор Браун (Бен Кингсли) и его жена Лилиан (Джеки Уивер) известны прихожанам как Ма и Па. Долгое время эта парочка обманывает последователей церкви, выманивая у них сбережения, прикрываясь религией и уверяя доверчивых жителей, что все средства идут на благие цели. Вор по имени Джеймс (Джимми Симпсон) решает обокрасть пастора, получив наводку от его же сына (Дэймон Херриман). И все у аферистов идет по плану, пока не оказывается, что старики не так просты, как ожидал Джеймс. На кону миллионы долларов, поэтому каждого, кто перешел им дорогу, ждет жестокая кровавая расплата.--Доп. информация: «Предприятие “Вечная благодать”» — неонуарный триллер с элементами комедии от авторов «Патриота» Стива Конрада и Брюса Терриса. Конрад также выступил в качестве режиссера шести эпизодов первого сезона. Своим стилем и подачей шоу напоминает культовую криминальную драму «Во все тяжкие». «Предприятие “Вечная благодать”» — проект едкий, жесткий, с надрывом и персонажами, которые достаточно умны, чтобы продумать план, но недостаточно хороши, чтобы без форс-мажоров воплотить его в реальность. Съемки сериала проходили в Нью-Мексико, а главные роли исполнили Джимми Симпсон («Черное зеркало»), Бен Кингсли («Ганди») и Джеки Уивер («Мой парень — псих»). --Качество: WEB-DL 1080p
Формат: MKV
Видео кодек: H.264
Аудио кодек: AC3
Видео: MPEG4 Video (H264) 1920x1080 23.976fps 6 800 kb/s
Аудио: Dolby AC3 48000Hz stereo 384kbps 2ch | Rus, Eng
General
Unique ID : 210958085285818687139298071541663060710 (0x9EB50CA1F4C95B1F87B73C773326D2E6)
Complete name : D:\Perpetual.Grace.LTD.S01E01.1080p.rus.LostFilm.TV.mkv
Format : Matroska
Format version : Version 4
File size : 2.83 GiB
Duration : 53 min 38 s
Overall bit rate : 7 562 kb/s
Encoded date : UTC 2019-06-05 21:22:15
Writing application : mkvmerge v9.5.0 ('Quiet Fire') 64bit
Writing library : libebml v1.3.4 + libmatroska v1.4.5
Video
ID : 1
Format : AVC
Format/Info : Advanced Video Codec
Format profile : High@L4.1
Format settings : CABAC / 4 Ref Frames
Format settings, CABAC : Yes
Format settings, Reference fra : 4 frames
Codec ID : V_MPEG4/ISO/AVC
Duration : 53 min 38 s
Bit rate : 6 800 kb/s
Width : 1 920 pixels
Height : 1 080 pixels
Display aspect ratio : 16:9
Frame rate mode : Constant
Frame rate : 23.976 (24000/1001) FPS
Original frame rate : 23.976 (23976/1000) FPS
Color space : YUV
Chroma subsampling : 4:2:0
Bit depth : 8 bits
Scan type : Progressive
Bits/(Pixel*Frame) : 0.137
Stream size : 2.54 GiB (90%)
Writing library : x264 core 112 r1834 a51816a
Encoding settings : cabac=1 / ref=4 / deblock=1:-3:-2 / analyse=0x3:0x113 / me=hex / subme=7 / psy=1 / psy_rd=1.00:0.00 / mixed_ref=1 / me_range=16 / chroma_me=1 / trellis=1 / 8x8dct=1 / cqm=0 / deadzone=21,11 / fast_pskip=1 / chroma_qp_offset=-2 / threads=12 / sliced_threads=0 / nr=0 / decimate=1 / interlaced=0 / constrained_intra=0 / bframes=5 / b_pyramid=2 / b_adapt=1 / b_bias=0 / direct=1 / weightb=1 / open_gop=0 / weightp=2 / keyint=250 / keyint_min=25 / scenecut=40 / intra_refresh=0 / rc_lookahead=40 / rc=2pass / mbtree=1 / bitrate=6800 / ratetol=1.0 / qcomp=0.60 / qpmin=0 / qpmax=51 / qpstep=4 / cplxblur=20.0 / qblur=0.5 / vbv_maxrate=10000 / vbv_bufsize=256000 / ip_ratio=1.40 / aq=1:1.00 / nal_hrd=none
Default : Yes
Forced : No
Audio #1
ID : 2
Format : AC-3
Format/Info : Audio Coding 3
Commercial name : Dolby Digital
Codec ID : A_AC3
Duration : 53 min 38 s
Bit rate mode : Constant
Bit rate : 384 kb/s
Channel(s) : 2 channels
Channel layout : L R
Sampling rate : 48.0 kHz
Frame rate : 31.250 FPS (1536 SPF)
Bit depth : 16 bits
Compression mode : Lossy
Stream size : 147 MiB (5%)
Service kind : Complete Main
Default : Yes
Forced : No
Audio #2
ID : 3
Format : AC-3
Format/Info : Audio Coding 3
Commercial name : Dolby Digital
Codec ID : A_AC3
Duration : 53 min 38 s
Bit rate mode : Constant
Bit rate : 384 kb/s
Channel(s) : 2 channels
Channel layout : L R
Sampling rate : 48.0 kHz
Frame rate : 31.250 FPS (1536 SPF)
Bit depth : 16 bits
Compression mode : Lossy
Stream size : 147 MiB (5%)
Service kind : Complete Main
Default : No
Forced : No

Release was prepared by RG Serials

If your ratio falls below 0.3, you will not be able to download Torrents! More about the rating.

[toptorrent.pw].t5997.torrent
Torrent: Registered [ Today 10:05 ] · ABA1CA5CDF675AD6871C24920563A9B4B5C30E3A

Download .torrent

Download

21 KB

Status: T temporary
Completed: 0 times
Size: 7.98 GB
Rate: 
(Vote: 1)
Has thanked: 1  Thanks   (List)
terms.php


Last edited by .:Mercury:. on Today 10:05; edited 1 time in total

.:Mercury:. ®

Gender: Male

Longevity: 1 year 4 months

Posts: 3323

Карма: 31947 [+]

Наличие запрета:

[Profile] [PM]

Post 12-Jun-2019 11:10 (after 6 days)

[Quote]

+2

.:Mercury:. ®

Gender: Male

Longevity: 1 year 4 months

Posts: 3323

Карма: 31947 [+]

Наличие запрета:

[Profile] [PM]

Post Today 10:06 (after 6 days)

[Quote]

+3
Display posts:    
Reply to topic

Current time is: 19-Jun 18:15

All times are UTC + 5



You cannot post new topics in this forum
You cannot reply to topics in this forum
You cannot edit your posts in this forum
You cannot delete your posts in this forum
You cannot vote in polls in this forum
You cannot attach files in this forum
You can download files in this forum