Рассказ служанки / The Handmaid's Tale / Сезон 3 / Серии 1-3 из 13 (Майк Баркер, Кари Скогланд, Рид Морано) [2019 г., Драма, Фантастика, WEBRip 1080p] MVO (LostFilm) + Original Eng

Reply to topic
DL-List and Torrent activity
Size:  8 GB   |    Registered:  5 days   |    Completed:  0 times
Seeders:  2  [  0 KB/s  ]   Leechers:  1  [  0 KB/s  ]   Show peers in full details
 
 
 
 
Author Message

.:Mercury:. ®

Gender: Male

Longevity: 1 year 4 months

Posts: 3330

Карма: 31947 [+]

Наличие запрета:

[Profile] [PM]

Post 08-Jun-2019 11:52

[Quote]

Рассказ служанки / The Handmaid's Tale
- -Год выпуска: 2019
Страна: США
Жанр: Драма, Фантастика
Продолжительность: ~00:55:00
Перевод: Профессиональный (многоголосый, закадровый) LostFilm--Режиссер: Майк Баркер, Кари Скогланд, Рид Морано--В ролях: Элизабет Мосс, Ивонн Страховски, Макс Мингелла, Аманда Бругел, Джозеф Файнс, Мадлен Брюэр и др.--Описание: Действие разворачивается в будущем, в республике Гилеад, где у власти стоят военные. В стране жестокие порядки и нравы, уважением в обществе пользуются только офицеры и их жёны. Помимо тоталитарного устройства общества, в мире будущего есть серьёзная проблема — бесплодие. Лишь каждая сотая женщина способна к воспроизведению потомства. Чтобы продолжить офицерский род, семьи берут в дом служанку — суррогатную мать из числа простых женщин, способных к деторождению. Исполнив долг, служанка должна расстаться со своим ребёнком и перейти на службу к новым хозяевам--Качество: WEBRip 1080p
Формат: MKV
Видео кодек: H.264
Аудио кодек: AC3
Видео: MPEG4 Video (H264) 1920x1080 23.976fps 6 800 kb/s
Аудио: Dolby AC3 48000Hz stereo 384kbps 2ch | Rus, Eng
General
Unique ID : 177179642836146637786955972493491591389 (0x854B8ED6F38A6FFE989692CBD0C458DD)
Complete name : D:\The.Handmaid's.Tale.S03E01.1080p.rus.LostFilm.TV.mkv
Format : Matroska
Format version : Version 4
File size : 2.65 GiB
Duration : 50 min 12 s
Overall bit rate : 7 567 kb/s
Encoded date : UTC 2019-06-07 21:32:47
Writing application : mkvmerge v7.7.0 ('Six Voices') 64bit built on Feb 28 2015 23:39:33
Writing library : libebml v1.3.1 + libmatroska v1.4.2
Video
ID : 1
Format : AVC
Format/Info : Advanced Video Codec
Format profile : High@L4.1
Format settings : CABAC / 4 Ref Frames
Format settings, CABAC : Yes
Format settings, Reference fra : 4 frames
Codec ID : V_MPEG4/ISO/AVC
Duration : 50 min 12 s
Bit rate : 6 800 kb/s
Width : 1 920 pixels
Height : 1 080 pixels
Display aspect ratio : 16:9
Frame rate mode : Constant
Frame rate : 23.976 (24000/1001) FPS
Original frame rate : 23.976 (23976/1000) FPS
Color space : YUV
Chroma subsampling : 4:2:0
Bit depth : 8 bits
Scan type : Progressive
Bits/(Pixel*Frame) : 0.137
Stream size : 2.38 GiB (90%)
Writing library : x264 core 112 r1834 a51816a
Encoding settings : cabac=1 / ref=4 / deblock=1:-3:-2 / analyse=0x3:0x113 / me=hex / subme=7 / psy=1 / psy_rd=1.00:0.00 / mixed_ref=1 / me_range=16 / chroma_me=1 / trellis=1 / 8x8dct=1 / cqm=0 / deadzone=21,11 / fast_pskip=1 / chroma_qp_offset=-2 / threads=12 / sliced_threads=0 / nr=0 / decimate=1 / interlaced=0 / constrained_intra=0 / bframes=5 / b_pyramid=2 / b_adapt=1 / b_bias=0 / direct=1 / weightb=1 / open_gop=0 / weightp=2 / keyint=250 / keyint_min=25 / scenecut=40 / intra_refresh=0 / rc_lookahead=40 / rc=2pass / mbtree=1 / bitrate=6800 / ratetol=1.0 / qcomp=0.60 / qpmin=0 / qpmax=51 / qpstep=4 / cplxblur=20.0 / qblur=0.5 / vbv_maxrate=10000 / vbv_bufsize=256000 / ip_ratio=1.40 / aq=1:1.00 / nal_hrd=none
Default : Yes
Forced : No
Audio #1
ID : 2
Format : AC-3
Format/Info : Audio Coding 3
Commercial name : Dolby Digital
Codec ID : A_AC3
Duration : 50 min 12 s
Bit rate mode : Constant
Bit rate : 384 kb/s
Channel(s) : 2 channels
Channel layout : L R
Sampling rate : 48.0 kHz
Frame rate : 31.250 FPS (1536 SPF)
Bit depth : 16 bits
Compression mode : Lossy
Stream size : 138 MiB (5%)
Service kind : Complete Main
Default : Yes
Forced : No
Audio #2
ID : 3
Format : AC-3
Format/Info : Audio Coding 3
Commercial name : Dolby Digital
Codec ID : A_AC3
Duration : 50 min 12 s
Bit rate mode : Constant
Bit rate : 384 kb/s
Channel(s) : 2 channels
Channel layout : L R
Sampling rate : 48.0 kHz
Frame rate : 31.250 FPS (1536 SPF)
Bit depth : 16 bits
Compression mode : Lossy
Stream size : 138 MiB (5%)
Service kind : Complete Main
Default : No
Forced : No

Release was prepared by RG Serials

If your ratio falls below 0.3, you will not be able to download Torrents! More about the rating.

[toptorrent.pw].t5999.torrent
Torrent: Registered [ 2019-06-15 12:53 ] · 25BCE4E128A78D889E4531861C940EB434C88F76

Download .torrent

Download

21 KB

Status: T temporary
Completed: 0 times
Size: 8 GB
Rate: 
(Vote: 1)
Has thanked: 1  Thanks   (List)
terms.php


Last edited by .:Mercury:. on 2019-06-15 12:53; edited 1 time in total

.:Mercury:. ®

Gender: Male

Longevity: 1 year 4 months

Posts: 3330

Карма: 31947 [+]

Наличие запрета:

[Profile] [PM]

Post 12-Jun-2019 11:47 (after 3 days)

[Quote]

+2

.:Mercury:. ®

Gender: Male

Longevity: 1 year 4 months

Posts: 3330

Карма: 31947 [+]

Наличие запрета:

[Profile] [PM]

Post 15-Jun-2019 12:55 (after 3 days)

[Quote]

+3
Display posts:    
Reply to topic

Current time is: 20-Jun 22:46

All times are UTC + 5



You cannot post new topics in this forum
You cannot reply to topics in this forum
You cannot edit your posts in this forum
You cannot delete your posts in this forum
You cannot vote in polls in this forum
You cannot attach files in this forum
You can download files in this forum