Черное зеркало / Black Mirror / Сезон 5 / Серии 1-3 из 3 (Оуэн Харрис, Карл Тиббетс, Отто Бафрест) [2019 г., Драма, Триллер, Фантастика, WEBRip 1080p] MVO (LostFilm) + Original

Reply to topic

DL-List and Torrent activity
Size:  10.56 GB   |    Registered:  3 months 4 days   |    Completed:  0 times

Seeder not seen: 2 months 7 days

 
 
 
 
Author Message

.:Mercury:. ®

Gender: Male

Longevity: 1 year 7 months

Posts: 3526

Карма: 31947 [+]

Наличие запрета:

[Profile] [PM]

Post 09-Jun-2019 07:45

[Quote]

Черное зеркало / Black Mirror- -Год выпуска: 2019
Страна: Великобритания
Жанр: Драма, Триллер, Фантастика
Продолжительность: ~01:02:00
Перевод: Профессиональный (многоголосый, закадровый) LostFilm--Режиссер: Оуэн Харрис, Карл Тиббетс, Отто Бафрест--В ролях: Грег крик, Майли Сайрус, Энтона Маки, Эндрю Скотт, Яхья Абдул-Матин II, Демсон Идрис, Энгаури Райс, Николь Бахари, Мэдисон Девенпорт, Тофер Грейс, Моника Долан, Пом Клементьефф, Аманда Дрю, Луди Линь, Дэниэл Ингс, Руибо Цянь--Описание: За последние десять лет технологии всесторонне изменили нашу жизнь, прежде чем мы успели опомниться и усомниться в них. В каждом доме, на каждом столе, на каждой ладони - плазменный телевизор, монитор компьютера, дисплей смартфона - черное зеркало нашего существования в двадцать первом веке. Наша связь с реальностью меняется. Мы возложили на алтарь «Google» и «Apple» и поклоняемся им. «Facebook» алгоритмы знают о нас больше, чем наши собственные родители. У нас есть доступ ко всей информации в мире, но в голове хватает места лишь для того, чтобы воспринять 140 символов из сообщения в твиттере. В «Чёрном зеркале» отображается всеобщее беспокойство за наш современный мир. Этот увлекательный мини-сериал состоит из трёх несвязанных между собой эпизодов, которые наполнены острой сатирой и завязаны на параноидальной зависимости людей от современных технологий...--Качество: WEBRip 1080p
Формат: MKV
Видео кодек: H264
Аудио кодек: AC3
Видео: MPEG4 Video (H264) 1920x1080 23.976fps 6 800 kb/s
Аудио: Dolby AC3 48000Hz stereo 384kbps 2ch | Rus, Eng
General
Unique ID : 187687447428930975300472601206553074808 (0x8D33499AD6A94DA5A828BD10AB945C78)
Complete name : D:\Black.Mirror.S05E01.1080p.rus.LostFilm.TV.mkv
Format : Matroska
Format version : Version 4
File size : 3.27 GiB
Duration : 1 h 1 min
Overall bit rate : 7 562 kb/s
Encoded date : UTC 2019-06-08 16:55:24
Writing application : mkvmerge v7.7.0 ('Six Voices') 64bit built on Feb 28 2015 23:39:33
Writing library : libebml v1.3.1 + libmatroska v1.4.2
Video
ID : 1
Format : AVC
Format/Info : Advanced Video Codec
Format profile : High@L4.1
Format settings : CABAC / 4 Ref Frames
Format settings, CABAC : Yes
Format settings, Reference fra : 4 frames
Codec ID : V_MPEG4/ISO/AVC
Duration : 1 h 1 min
Bit rate : 6 800 kb/s
Width : 1 920 pixels
Height : 1 080 pixels
Display aspect ratio : 16:9
Frame rate mode : Constant
Frame rate : 25.000 FPS
Color space : YUV
Chroma subsampling : 4:2:0
Bit depth : 8 bits
Scan type : Progressive
Bits/(Pixel*Frame) : 0.131
Stream size : 2.94 GiB (90%)
Writing library : x264 core 112 r1834 a51816a
Encoding settings : cabac=1 / ref=4 / deblock=1:-3:-2 / analyse=0x3:0x113 / me=hex / subme=7 / psy=1 / psy_rd=1.00:0.00 / mixed_ref=1 / me_range=16 / chroma_me=1 / trellis=1 / 8x8dct=1 / cqm=0 / deadzone=21,11 / fast_pskip=1 / chroma_qp_offset=-2 / threads=6 / sliced_threads=0 / nr=0 / decimate=1 / interlaced=0 / constrained_intra=0 / bframes=5 / b_pyramid=2 / b_adapt=1 / b_bias=0 / direct=1 / weightb=1 / open_gop=0 / weightp=2 / keyint=250 / keyint_min=25 / scenecut=40 / intra_refresh=0 / rc_lookahead=40 / rc=2pass / mbtree=1 / bitrate=6800 / ratetol=1.0 / qcomp=0.60 / qpmin=0 / qpmax=51 / qpstep=4 / cplxblur=20.0 / qblur=0.5 / vbv_maxrate=10000 / vbv_bufsize=256000 / ip_ratio=1.40 / aq=1:1.00 / nal_hrd=none
Default : Yes
Forced : No
Audio #1
ID : 2
Format : AC-3
Format/Info : Audio Coding 3
Commercial name : Dolby Digital
Codec ID : A_AC3
Duration : 1 h 1 min
Bit rate mode : Constant
Bit rate : 384 kb/s
Channel(s) : 2 channels
Channel layout : L R
Sampling rate : 48.0 kHz
Frame rate : 31.250 FPS (1536 SPF)
Bit depth : 16 bits
Compression mode : Lossy
Stream size : 170 MiB (5%)
Service kind : Complete Main
Default : Yes
Forced : No
Audio #2
ID : 3
Format : AC-3
Format/Info : Audio Coding 3
Commercial name : Dolby Digital
Codec ID : A_AC3
Duration : 1 h 1 min
Bit rate mode : Constant
Bit rate : 384 kb/s
Channel(s) : 2 channels
Channel layout : L R
Sampling rate : 48.0 kHz
Frame rate : 31.250 FPS (1536 SPF)
Bit depth : 16 bits
Compression mode : Lossy
Stream size : 170 MiB (5%)
Service kind : Complete Main
Default : No
Forced : No

Release was prepared by RG Serials



If your ratio falls below 0.3, you will not be able to download Torrents! More about the rating.

[toptorrent.pw].t6001.torrent
Torrent: Registered [ 2019-06-14 10:25 ] · 7684A098D08F9E9CC938884836EF880574878AF1

Download .torrent

Download

27 KB

Status: checked
Completed: 0 times
Size: 10.56 GB
Rate: 
(Vote: 1)
Has thanked: 1  Thanks   (List)
terms.php


Last edited by .:Mercury:. on 2019-06-14 10:25; edited 1 time in total

.:Mercury:. ®

Gender: Male

Longevity: 1 year 7 months

Posts: 3526

Карма: 31947 [+]

Наличие запрета:

[Profile] [PM]

Post 11-Jun-2019 12:52 (after 2 days 5 hours)

[Quote]

+2 

.:Mercury:. ®

Gender: Male

Longevity: 1 year 7 months

Posts: 3526

Карма: 31947 [+]

Наличие запрета:

[Profile] [PM]

Post 14-Jun-2019 10:26 (after 2 days 21 hour)

[Quote]

5-й сезон 
Display posts:    
Reply to topic

Current time is: 18-Sep 16:35

All times are UTC + 5



You cannot post new topics in this forum
You cannot reply to topics in this forum
You cannot edit your posts in this forum
You cannot delete your posts in this forum
You cannot vote in polls in this forum
You cannot attach files in this forum
You can download files in this forum