Королева юга / Queen of the South / Сезон 4 / Серии 1-2 из 13 (Эдуардо Санчес, Дэвид Бойд, Дэйв Родригез) [2019 г., Криминал, Драма, Боевик, WEB-DL 1080p] MVO (LostFilm) + Original Eng

Reply to topic
DL-List and Torrent activity
Size:  4.58 GB   |    Registered:  3 days   |    Completed:  0 times
Seeders:  7  [  0 KB/s  ]   Leechers:  1  [  0 KB/s  ]   Show peers in full details
   
 
Author Message

.:Mercury:. ®

Gender: Male

Longevity: 1 year 4 months

Posts: 3323

Карма: 31947 [+]

Наличие запрета:

[Profile] [PM]

Post 09-Jun-2019 08:01

[Quote]

Королева юга / Queen of the South- -Год выпуска: 2019
Страна: США, Испания, Мальта, Мексика
Жанр: Криминал, Драма, Боевик
Продолжительность: ~00:44:00
Перевод: Профессиональный (многоголосый, закадровый) LostFilm--Режиссер: Эдуардо Санчес, Дэвид Бойд, Дэйв Родригез--В ролях: Алиси Брага, Вероника Фалькон, Питер Гадиот, Хемки Мадера, Ник Сагар, Жоаки де Алмейда, Сэнди Валлес, Фелипе Барриентос, Янси Ариас, Джон Майкл Экер--Описание: Когда-то Тереса после гибели возлюбленного осталась одна и решила поменять место жительства, переехав жить с Мексики в Америку. Здесь она привлекла внимание к себе местной наркобаронессы, которая оценила ее за ум и изворотливость, пригласила поработать вместе. Женщина решила руками девушки разорить бизнес своего мужа, но не тут то было.
Она же начинала жить по-новому и понимала в запрещенном бизнесе намного больше, чем ее шефы. Мендоса постепенно при поддержке влиятельных людей все выше занимала место в авторитетных кругах. Вот так она крутилась между друзьями и врагами, извивалась между полицией и конкурентами, старалась везде успеть и не оставлять никаких следов в своей деятельности. Для нее не существует ни страха, ни преград - ведь она покорила целый мир и не может предугадать какая расплата ждет ее в будущем.--Качество: WEB-DL 1080p
Формат: MKV
Видео кодек: H.264
Аудио кодек: AC3
Видео: MPEG4 Video (H264) 1920x1080 23.976fps 6 800 kb/s
Аудио: Dolby AC3 48000Hz stereo 384kbps 2ch | Rus, Eng
General
Unique ID : 225029867818495967835867226598031864224 (0xA94B2D13AA3E581B8B4434064C01B1A0)
Complete name : F:\Restored\Queen.of.the.South.S04E01.1080p.rus.LostFilm.TV.mkv
Format : Matroska
Format version : Version 4
File size : 2.34 GiB
Duration : 44 min 22 s
Overall bit rate : 7 566 kb/s
Encoded date : UTC 2019-06-08 17:53:23
Writing application : mkvmerge v7.7.0 ('Six Voices') 64bit built on Feb 28 2015 23:39:33
Writing library : libebml v1.3.1 + libmatroska v1.4.2
Video
ID : 1
Format : AVC
Format/Info : Advanced Video Codec
Format profile : High@L4.1
Format settings : CABAC / 4 Ref Frames
Format settings, CABAC : Yes
Format settings, Reference fra : 4 frames
Codec ID : V_MPEG4/ISO/AVC
Duration : 44 min 22 s
Bit rate : 6 800 kb/s
Width : 1 920 pixels
Height : 1 080 pixels
Display aspect ratio : 16:9
Frame rate mode : Constant
Frame rate : 23.976 (24000/1001) FPS
Original frame rate : 23.976 (23976/1000) FPS
Color space : YUV
Chroma subsampling : 4:2:0
Bit depth : 8 bits
Scan type : Progressive
Bits/(Pixel*Frame) : 0.137
Stream size : 2.11 GiB (90%)
Writing library : x264 core 112 r1834 a51816a
Encoding settings : cabac=1 / ref=4 / deblock=1:-3:-2 / analyse=0x3:0x113 / me=hex / subme=7 / psy=1 / psy_rd=1.00:0.00 / mixed_ref=1 / me_range=16 / chroma_me=1 / trellis=1 / 8x8dct=1 / cqm=0 / deadzone=21,11 / fast_pskip=1 / chroma_qp_offset=-2 / threads=6 / sliced_threads=0 / nr=0 / decimate=1 / interlaced=0 / constrained_intra=0 / bframes=5 / b_pyramid=2 / b_adapt=1 / b_bias=0 / direct=1 / weightb=1 / open_gop=0 / weightp=2 / keyint=250 / keyint_min=25 / scenecut=40 / intra_refresh=0 / rc_lookahead=40 / rc=2pass / mbtree=1 / bitrate=6800 / ratetol=1.0 / qcomp=0.60 / qpmin=0 / qpmax=51 / qpstep=4 / cplxblur=20.0 / qblur=0.5 / vbv_maxrate=10000 / vbv_bufsize=256000 / ip_ratio=1.40 / aq=1:1.00 / nal_hrd=none
Default : Yes
Forced : No
Audio #1
ID : 2
Format : AC-3
Format/Info : Audio Coding 3
Commercial name : Dolby Digital
Codec ID : A_AC3
Duration : 44 min 21 s
Bit rate mode : Constant
Bit rate : 384 kb/s
Channel(s) : 2 channels
Channel layout : L R
Sampling rate : 48.0 kHz
Frame rate : 31.250 FPS (1536 SPF)
Bit depth : 16 bits
Compression mode : Lossy
Stream size : 122 MiB (5%)
Service kind : Complete Main
Default : Yes
Forced : No
Audio #2
ID : 3
Format : AC-3
Format/Info : Audio Coding 3
Commercial name : Dolby Digital
Codec ID : A_AC3
Duration : 44 min 22 s
Bit rate mode : Constant
Bit rate : 384 kb/s
Channel(s) : 2 channels
Channel layout : L R
Sampling rate : 48.0 kHz
Frame rate : 31.250 FPS (1536 SPF)
Bit depth : 16 bits
Compression mode : Lossy
Stream size : 122 MiB (5%)
Service kind : Complete Main
Default : No
Forced : No

Release was prepared by RG Serials

If your ratio falls below 0.3, you will not be able to download Torrents! More about the rating.

[toptorrent.pw].t6002.torrent
Torrent: Registered [ 2019-06-16 11:13 ] · 986A1BFC9A21C2CCE0FD6266C9D21FA3BD70E910

Download .torrent

Download

12 KB

Status: T temporary
Completed: 0 times
Size: 4.58 GB
Rate: 
(Vote: 1)
Has thanked: 1  Thanks   (List)
terms.php

.:Mercury:. ®

Gender: Male

Longevity: 1 year 4 months

Posts: 3323

Карма: 31947 [+]

Наличие запрета:

[Profile] [PM]

Post 16-Jun-2019 11:13 (after 7 days)

[Quote]

+2
Display posts:    
Reply to topic

Current time is: 19-Jun 17:43

All times are UTC + 5



You cannot post new topics in this forum
You cannot reply to topics in this forum
You cannot edit your posts in this forum
You cannot delete your posts in this forum
You cannot vote in polls in this forum
You cannot attach files in this forum
You can download files in this forum