Рыцарь дня / Knight and Day (Джеймс Мэнголд) [2010 г., Боевик, мелодрама, комедия, приключения, BDRip] DUB

Reply to topic
DL-List and Torrent activity
Size:  1.46 GB   |    Registered:  10 days   |    Completed:  0 times
Seeders:  1  [  0 KB/s  ]   Show peers in full details
 
 
 
 
Author Message

_Deimos_ ®

VIP пользователь

Gender: Male

Longevity: 1 year 4 months

Posts: 365

Карма: 33000 [+]

Location: Топторрент

Наличие запрета:

[Profile] [PM]

Post 09-Jun-2019 12:14

[Quote]

Рыцарь дня-
--Год выпуска: 2010
Страна: США
Жанр: Боевик, мелодрама, комедия, приключения
Продолжительность: 01:44:43
Перевод: Профессиональный дублированный--Режиссёр: Джеймс Мэнголд--В ролях: Том Круз, Кэмерон Диаз, Питер Сарсгаард, Хорди Молья, Виола Дэвис, Пол Дано, Фальк Хеншел, Марк Блукас, Ленни Лофтин, Мэгги Грэйс-- : Случайная встреча в аэропорту одинокой женщины Джун Хэвенс и обаятельного агента Миллера приводит к тому, что им приходится вместе колесить по всему свету, спасаясь от наемных убийц и пытаясь уберечь от коварных злодеев мощную батарею, которая является уникальным источником энергии.
Попадая в бесчисленные передряги и постоянно находясь на волоске от смерти, Джун все время мучается в догадках, кто же на самом деле ее неугомонный спутник — спаситель человечества, предатель или просто-напросто сумасшедший…-- Качество: BDRip
Формат видео: AVI
Видео: Xvid, 720x304, 25 fps, 1606 kb/s
Аудио: AC3, 48.0 kHz, 6 channels, 384 kb/s--

Рейтинг фильма --
General
Complete name : F:\Kino\Боевики\Рыцарь дня - Knight and Day (2010) BDRip.avi
Format : AVI
Format/Info : Audio Video Interleave
File size : 1.46 GiB
Duration : 1 h 44 min
Overall bit rate : 2 000 kb/s
Movie name : Ricar.Dnya.2010.D.BDRip_Smallrip.Com
Director : smallz
Writing application : VirtualDubModRus 1.5.10.2 (build 2542/release)
Copyright :
Video
ID : 0
Format : MPEG-4 Visual
Format profile : Advanced Simple@L5
Format settings, BVOP : 1
Format settings, QPel : No
Format settings, GMC : No warppoints
Format settings, Matrix : Custom
Codec ID : XVID
Codec ID/Hint : XviD
Duration : 1 h 44 min
Bit rate : 1 606 kb/s
Width : 720 pixels
Height : 304 pixels
Display aspect ratio : 2.35:1
Frame rate : 25.000 FPS
Color space : YUV
Chroma subsampling : 4:2:0
Bit depth : 8 bits
Scan type : Progressive
Compression mode : Lossy
Bits/(Pixel*Frame) : 0.294
Stream size : 1.18 GiB (80%)
Writing library : XviD 1.2.1 (UTC 2008-12-04)
Audio
ID : 1
Format : AC-3
Format/Info : Audio Coding 3
Format settings, Endianness : Big
Codec ID : 2000
Duration : 1 h 44 min
Bit rate mode : Constant
Bit rate : 384 kb/s
Channel(s) : 6 channels
Channel positions : Front: L C R, Side: L R, LFE
Sampling rate : 48.0 kHz
Frame rate : 31.250 FPS (1536 SPF)
Bit depth : 16 bits
Compression mode : Lossy
Delay relative to video : 24 ms
Stream size : 288 MiB (19%)
Alignment : Split accross interleaves
Interleave, duration : 40 ms (1.00 video frame)
Interleave, preload duration : 500 ms
Service kind : Complete Main

Release was prepared by RG Cinema

If your ratio falls below 0.3, you will not be able to download Torrents! More about the rating.

[toptorrent.pw].t6004.torrent
Torrent: Registered [ 2019-06-09 12:14 ] · 2230C49FB73B72454A89FDAC7157281A7CDF3C2E

Download .torrent

Download

15 KB

Status: checked
Completed: 0 times
Size: 1.46 GB
Rate: 
(Vote: 1)
Has thanked: 1  Thanks   (List)
terms.php
Display posts:    
Reply to topic

Current time is: 19-Jun 17:44

All times are UTC + 5



You cannot post new topics in this forum
You cannot reply to topics in this forum
You cannot edit your posts in this forum
You cannot delete your posts in this forum
You cannot vote in polls in this forum
You cannot attach files in this forum
You can download files in this forum