Скорость / Speed (Ян Де Бонт) [1994 г., Боевик, криминал, приключения, BDRip] MVO [ОРТ]

Reply to topic

DL-List and Torrent activity
Size:  2.07 GB   |    Registered:  4 months 6 days   |    Completed:  0 times

Seeder not seen: 2 months 15 days

 
 
 
 
Author Message

_Deimos_ ®

VIP пользователь

Gender: Male

Longevity: 1 year 8 months

Posts: 379

Карма: 33000 [+]

Наличие запрета:

[Profile] [PM]

Post 09-Jun-2019 12:37

[Quote]

Скорость-
--Год выпуска: 1994
Страна: США
Жанр: Боевик, криминал, приключения
Продолжительность: 01:55:59
Перевод: Профессиональный многоголосый [ОРТ]--Режиссёр: Ян Де Бонт--В ролях: Киану Ривз, Сандра Буллок, Деннис Хоппер, Джо Мортон, Джефф Дэниелс, Алан Рак, Гленн Пламмер, Ричард Лайнбэк, Бет Грант, Хоторн Джеймс.-- : Представьте себе девушку, у которой на заднем стекле автомобиля красуется наклейка с восклицательным знаком, чайником и странного вида туфлей с подписью «уважай меня». Теперь представьте эту девушку за рулем гигантского американского автобуса, несущегося по городу на огромной скорости в час пик. Выглядит это довольно забавно, если не знать, что автобус заминирован и может взорваться, если стрелка спидометра опустится ниже пятидесяти миль в час.
Пассажиры в панике, события разворачивается с бешеной скоростью, а времени до взрыва остается все меньше. На поиски таинственного террориста, который уже доказал серьезность своих намерений, взорвав переполненный людьми лифт, брошены элитные подразделения полиции. Но время идет, а выйти на след преступника так и не удается. В противоборство с террористом вступает лучший боец спецназа Джек Трейвен. Теперь от того, сможет ли он верно распорядиться оставшимися секундами, зависят жизни десятков людей.-- Качество: BDRip
Формат видео: AVI
Видео: Xvid, 720x304, 23.976 fps, 1 953 kb/s
Аудио 1: AC3, 48.0 kHz, 2 channels, 192 kb/s (ОРТ TVRip)
Аудио 2: AC3, 48.0 kHz, 2 channels, 192 kb/s (Премьер Видео Фильм VHSRip)
Аудио 3: AC3, 48.0 kHz, 2 channels, 192 kb/s (МладоКашкин VHSRip)--

Рейтинг фильма --
General
Complete name : F:\Kino\Боевики\Скорость. 1994.avi
Format : AVI
Format/Info : Audio Video Interleave
Format profile : OpenDML
File size : 2.07 GiB
Duration : 1 h 55 min
Overall bit rate : 2 554 kb/s
Movie name : Скорость / Skorost (1994) BDRip
Director : Serval
Writing application : VirtualDubMod 1.5.10.3 (build 2550/release)
Writing library : VirtualDubMod build 2550/release
Copyright : http://forum.hellywood.ru
Comment : 27.10.2009
Video
ID : 0
Format : MPEG-4 Visual
Format profile : Advanced Simple@L5
Format settings, BVOP : 1
Format settings, QPel : No
Format settings, GMC : No warppoints
Format settings, Matrix : Default (MPEG)
Codec ID : XVID
Codec ID/Hint : XviD
Duration : 1 h 55 min
Bit rate : 1 953 kb/s
Width : 720 pixels
Height : 304 pixels
Display aspect ratio : 2.35:1
Frame rate : 23.976 (24000/1001) FPS
Original frame rate : 24.000 FPS
Color space : YUV
Chroma subsampling : 4:2:0
Bit depth : 8 bits
Scan type : Progressive
Compression mode : Lossy
Bits/(Pixel*Frame) : 0.372
Stream size : 1.58 GiB (76%)
Writing library : XviD 1.2.1 (UTC 2008-12-04)
Audio #1
ID : 1
Format : AC-3
Format/Info : Audio Coding 3
Format settings, Endianness : Big
Codec ID : 2000
Duration : 1 h 55 min
Bit rate mode : Constant
Bit rate : 192 kb/s
Channel(s) : 2 channels
Channel positions : Front: L R
Sampling rate : 48.0 kHz
Frame rate : 31.250 FPS (1536 SPF)
Bit depth : 16 bits
Compression mode : Lossy
Stream size : 159 MiB (8%)
Alignment : Split accross interleaves
Interleave, duration : 42 ms (1.00 video frame)
Interleave, preload duration : 500 ms
Service kind : Complete Main
Audio #2
ID : 2
Format : AC-3
Format/Info : Audio Coding 3
Format settings, Endianness : Big
Codec ID : 2000
Duration : 1 h 55 min
Bit rate mode : Constant
Bit rate : 192 kb/s
Channel(s) : 2 channels
Channel positions : Front: L R
Sampling rate : 48.0 kHz
Frame rate : 31.250 FPS (1536 SPF)
Bit depth : 16 bits
Compression mode : Lossy
Stream size : 159 MiB (8%)
Alignment : Split accross interleaves
Interleave, duration : 42 ms (1.00 video frame)
Interleave, preload duration : 500 ms
Service kind : Complete Main
Audio #3
ID : 3
Format : AC-3
Format/Info : Audio Coding 3
Format settings, Endianness : Big
Codec ID : 2000
Duration : 1 h 55 min
Bit rate mode : Constant
Bit rate : 192 kb/s
Channel(s) : 2 channels
Channel positions : Front: L R
Sampling rate : 48.0 kHz
Frame rate : 31.250 FPS (1536 SPF)
Bit depth : 16 bits
Compression mode : Lossy
Stream size : 159 MiB (8%)
Alignment : Split accross interleaves
Interleave, duration : 42 ms (1.00 video frame)
Interleave, preload duration : 500 ms
Service kind : Complete Main

Release was prepared by RG Cinema



If your ratio falls below 0.3, you will not be able to download Torrents! More about the rating.

[toptorrent.pw].t6005.torrent
Torrent: Registered [ 2019-06-09 12:37 ] · 81C3DD8A0CEF7000FCD2C76DC0E0229780B6CFC8

Download .torrent

Download

11 KB

Status: checked
Completed: 0 times
Size: 2.07 GB
Rate: 
(Vote: 2)
Has thanked: 2  Thanks   (List)
terms.php
Display posts:    
Reply to topic

Current time is: 15-Oct 14:22

All times are UTC + 5



You cannot post new topics in this forum
You cannot reply to topics in this forum
You cannot edit your posts in this forum
You cannot delete your posts in this forum
You cannot vote in polls in this forum
You cannot attach files in this forum
You can download files in this forum