Смертельная гонка 3 / Death Race: Inferno (Роэль Рейн) [2013 г., Боевик, триллер, криминал, HDRip] DUB

Reply to topic

DL-List and Torrent activity
Size:  1.46 GB   |    Registered:  4 months 6 days   |    Completed:  0 times

Seeder not seen: 2 months 15 days

 
 
 
 
Author Message

_Deimos_ ®

VIP пользователь

Gender: Male

Longevity: 1 year 8 months

Posts: 379

Карма: 33000 [+]

Наличие запрета:

[Profile] [PM]

Post 09-Jun-2019 13:20

[Quote]

Смертельная гонка 3-
--Год выпуска: 2013
Страна: США
Жанр: Боевик, триллер, криминал
Продолжительность: 01:45:12
Перевод: Профессиональный дублирование--Режиссёр: Роэль Рейн--В ролях: Дэнни Трехо, Винг Реймз, Люк Госс, Дюгрэй Скотт, Танита Феникс, Робин Шоу, Фредерик Колер, Таня ван Граан, Шон Майкл, Лэнгли Кирквуд-- : Действие текущей картины происходит в ближайшем будущем, когда экономика США начнёт своё снижение и на страну обрушится волна насилия. Чтобы сдержать постоянно растущее уголовное население, создаются частные тюрьмы. Худшая из этих тюрем – Терминал Айленд, где заключенным приходится воевать с другими заключенными за свою жизнь в телевизионном шоу.-- Качество: HDRip
Формат видео: AVI
Видео: Xvid, 720x400, 23.976 fps, 1528 kb/s
Аудио: AC3, 48.0 kHz, 6 channels, 448 kb/s--

Рейтинг фильма --
General
Complete name : F:\Kino\Боевики\Смертельная гонка. 2013.avi
Format : AVI
Format/Info : Audio Video Interleave
File size : 1.46 GiB
Duration : 1 h 45 min
Overall bit rate : 1 985 kb/s
Writing application : VirtualDubMod 1.5.10.2 (build 2540/release)
Writing library : VirtualDubMod build 2540/release
Video
ID : 0
Format : MPEG-4 Visual
Format profile : Advanced Simple@L5
Format settings, BVOP : 2
Format settings, QPel : No
Format settings, GMC : No warppoints
Format settings, Matrix : Custom
Codec ID : XVID
Codec ID/Hint : XviD
Duration : 1 h 45 min
Bit rate : 1 528 kb/s
Width : 720 pixels
Height : 400 pixels
Display aspect ratio : 16:9
Frame rate : 23.976 (24000/1001) FPS
Color space : YUV
Chroma subsampling : 4:2:0
Bit depth : 8 bits
Scan type : Progressive
Compression mode : Lossy
Bits/(Pixel*Frame) : 0.221
Stream size : 1.12 GiB (77%)
Writing library : XviD 64
Audio
ID : 1
Format : AC-3
Format/Info : Audio Coding 3
Format settings, Endianness : Big
Codec ID : 2000
Duration : 1 h 45 min
Bit rate mode : Constant
Bit rate : 448 kb/s
Channel(s) : 6 channels
Channel positions : Front: L C R, Side: L R, LFE
Sampling rate : 48.0 kHz
Frame rate : 31.250 FPS (1536 SPF)
Bit depth : 16 bits
Compression mode : Lossy
Stream size : 337 MiB (23%)
Alignment : Split accross interleaves
Interleave, duration : 42 ms (1.00 video frame)
Interleave, preload duration : 500 ms
Service kind : Complete Main

Release was prepared by RG Cinema



If your ratio falls below 0.3, you will not be able to download Torrents! More about the rating.

[toptorrent.pw].t6007.torrent
Torrent: Registered [ 2019-06-09 13:20 ] · 4B70DD3E4E9F96E4074CDBB9BFC6273323BCC204

Download .torrent

Download

15 KB

Status: checked
Completed: 0 times
Size: 1.46 GB
Rate: 
(Vote: 1)
Has thanked: 1  Thanks   (List)
terms.php
Display posts:    
Reply to topic

Current time is: 15-Oct 14:34

All times are UTC + 5



You cannot post new topics in this forum
You cannot reply to topics in this forum
You cannot edit your posts in this forum
You cannot delete your posts in this forum
You cannot vote in polls in this forum
You cannot attach files in this forum
You can download files in this forum