Кайт / Kite (Ральф Зиман) [2014 г., Боевик, триллер, HDRip-AVC] DUB [Лицензия]

Reply to topic
DL-List and Torrent activity
Size:  1.49 GB   |    Registered:  8 days   |    Completed:  0 times
Seeders:  1  [  0 KB/s  ]   Show peers in full details
 
 
 
 
Author Message

_Deimos_ ®

VIP пользователь

Gender: Male

Longevity: 1 year 4 months

Posts: 365

Карма: 33000 [+]

Location: Топторрент

Наличие запрета:

[Profile] [PM]

Post 10-Jun-2019 21:59

[Quote]

Кайт-
--Год выпуска: 2014
Страна: США, Мексика
Жанр: Боевик, триллер
Продолжительность: 01:29:42
Перевод: Дублированный [Лицензия]--Режиссёр: Ральф Зиман--В ролях: Индия Айсли, Сэмюэл Л. Джексон, Каллэн МакОлифф, Карл Бьюкс, Деон Лотз, Девилль Ванник, Теренс Бриджетт, Рассел Савадье, Лайонел Ньютон, Джеко Мюллер-- : Кайт - имя юной сироты-мстительницы. Давным-давно её родителей убил мафиози. Повзрослев и заручившись поддержкой лучшего друга отца Кайт встаёт на праведный путь мщения. Притворившись девицей лёгкого поведения Кайт ловит и пытает предполагаемых "шестёрок" главаря местной банды. Получив нужные сведения, она проникает в самые злачные районы города, в надежде добраться до местного воротилы теневого бизнеса. По пути отважная девушка переживёт немало разочарований. Но стоит ли ворошить прошлое, ведь всё может быть не так, как казалось в первый раз...-- Качество: HDRip-AVC
Формат видео: MKV
Видео: H.264, 1024x424, 23.976 fps, 1545 kb/s
Аудио 1: AC3, 48.0 kHz, 6 channels, 384 kb/s (Русский)
Аудио 2: AC3, 48.0 kHz, 2 channels, 448 kb/s (Английский)--

Рейтинг фильма --
General
Unique ID : 234438724243760522874518980233785199309 (0xB05F41839CD82B47971BFE167DDF4ACD)
Complete name : F:\Kino\Боевики\Кайт. 2014.mkv
Format : Matroska
Format version : Version 2
File size : 1.49 GiB
Duration : 1 h 29 min
Overall bit rate : 2 377 kb/s
Movie name : Kite 2014 from ExKinoRay
Encoded date : UTC 2014-09-29 23:03:22
Writing application : mkvmerge v4.9.1 ('Ich will') built on Jul 11 2011 23:53:15
Writing library : libebml v1.2.1 + libmatroska v1.1.1
Video
ID : 1
Format : AVC
Format/Info : Advanced Video Codec
Format profile : High@L4.1
Format settings, CABAC : Yes
Format settings, RefFrames : 9 frames
Codec ID : V_MPEG4/ISO/AVC
Duration : 1 h 29 min
Bit rate : 1 545 kb/s
Width : 1 024 pixels
Height : 424 pixels
Display aspect ratio : 2.40:1
Frame rate mode : Constant
Frame rate : 23.976 (24000/1001) FPS
Original frame rate : 23.976 (23976/1000) FPS
Color space : YUV
Chroma subsampling : 4:2:0
Bit depth : 8 bits
Scan type : Progressive
Bits/(Pixel*Frame) : 0.148
Stream size : 961 MiB (63%)
Title : Enigma-Vladislav71
Writing library : x264 core 116 r2044 392e762
Encoding settings : cabac=1 / ref=9 / deblock=1:-3:-3 / analyse=0x3:0x113 / me=umh / subme=10 / psy=1 / psy_rd=1.00:0.20 / mixed_ref=1 / me_range=32 / chroma_me=1 / trellis=2 / 8x8dct=1 / cqm=0 / deadzone=21,11 / fast_pskip=0 / chroma_qp_offset=-3 / threads=12 / sliced_threads=0 / nr=0 / decimate=0 / interlaced=0 / bluray_compat=0 / constrained_intra=0 / bframes=9 / b_pyramid=2 / b_adapt=2 / b_bias=0 / direct=3 / weightb=1 / open_gop=0 / weightp=2 / keyint=240 / keyint_min=23 / scenecut=40 / intra_refresh=0 / rc=2pass / mbtree=0 / bitrate=1545 / ratetol=1.0 / qcomp=0.60 / qpmin=0 / qpmax=69 / qpstep=4 / cplxblur=20.0 / qblur=0.5 / ip_ratio=1.40 / pb_ratio=1.30 / aq=1:1.00
Default : Yes
Forced : No
Audio #1
ID : 2
Format : AC-3
Format/Info : Audio Coding 3
Format settings, Endianness : Big
Codec ID : A_AC3
Duration : 1 h 29 min
Bit rate mode : Constant
Bit rate : 384 kb/s
Channel(s) : 6 channels
Channel positions : Front: L C R, Side: L R, LFE
Sampling rate : 48.0 kHz
Frame rate : 31.250 FPS (1536 SPF)
Bit depth : 16 bits
Compression mode : Lossy
Stream size : 246 MiB (16%)
Title : DUB
Language : Russian
Service kind : Complete Main
Default : Yes
Forced : No
Audio #2
ID : 3
Format : AC-3
Format/Info : Audio Coding 3
Mode : Dolby Digital
Format settings, Endianness : Big
Codec ID : A_AC3
Duration : 1 h 29 min
Bit rate mode : Constant
Bit rate : 448 kb/s
Channel(s) : 2 channels
Channel positions : Front: L R
Sampling rate : 48.0 kHz
Frame rate : 31.250 FPS (1536 SPF)
Bit depth : 16 bits
Compression mode : Lossy
Stream size : 287 MiB (19%)
Language : English
Service kind : Complete Main
Default : No
Forced : No
Menu
00:00:00.000 : en:Chapter 1
00:04:39.029 : en:Chapter 2
00:10:10.026 : en:Chapter 3
00:18:21.017 : en:Chapter 4
00:26:21.955 : en:Chapter 5
00:34:01.998 : en:Chapter 6
00:38:41.027 : en:Chapter 7
00:46:42.049 : en:Chapter 8
00:52:41.075 : en:Chapter 9
01:03:40.984 : en:Chapter 10
01:13:40.958 : en:Chapter 11
01:24:00.994 : en:Chapter 12

Release was prepared by RG Cinema

If your ratio falls below 0.3, you will not be able to download Torrents! More about the rating.

[toptorrent.pw].t6012.torrent
Torrent: Registered [ 2019-06-10 21:59 ] · 93D598F486141F7E211C9F6349B6225831776E57

Download .torrent

Download

15 KB

Status: checked
Completed: 0 times
Size: 1.49 GB
Rate: 
(Vote: 1)
Has thanked: 1  Thanks   (List)
terms.php
Display posts:    
Reply to topic

Current time is: 19-Jun 18:02

All times are UTC + 5



You cannot post new topics in this forum
You cannot reply to topics in this forum
You cannot edit your posts in this forum
You cannot delete your posts in this forum
You cannot vote in polls in this forum
You cannot attach files in this forum
You can download files in this forum