Ускорение / Momentum (Стивен С. Кампанелли) [2015 г., Боевик, триллер, WEB-DLRip] DUB [Лицензия]

Reply to topic
DL-List and Torrent activity
Size:  1.46 GB   |    Registered:  8 days   |    Completed:  0 times
Seeders:  2  [  0 KB/s  ]   Show peers in full details
 
 
 
 
Author Message

_Deimos_ ®

VIP пользователь

Gender: Male

Longevity: 1 year 4 months

Posts: 365

Карма: 33000 [+]

Location: Топторрент

Наличие запрета:

[Profile] [PM]

Post 10-Jun-2019 22:19

[Quote]

Ускорение / Momentum- --Год выпуска: 2015
Страна: ЮАР, США
Жанр: Боевик, триллер
Продолжительность: 01:35:57
Перевод: Дублированный [Лицензия]--Режиссёр: Стивен С. Кампанелли--В ролях: Ольга Куриленко, Морган Фриман, Джеймс Пьюрфой, Дженна Сарас, Сабина Палфи, Карл Танинг, Ли-Энн Саммерс, Эйдан Уайток, Мэриэн Фризелл, Грег Крик-- : Алекс, опытная воровка, соглашается совершить свое последнее ограбление… Но все идет не по плану. Теперь ей — красивой, сильной и безжалостной femme fatale — угрожает опасность. И неудачное ограбление — не единственная проблема. Она перешла дорогу секретному международному синдикату, который ищет нечто более ценное, чем бриллианты. С этого момента для Алекс единственный способ спастись — бежать. И как можно быстрее-- Качество: WEB-DLRip
Формат видео: AVI
Видео: Xvid, 720x304, 23.976 fps, 1970 kb/s
Аудио 1: AC3, 48.0 kHz, 2 channels, 192 kb/s--

Рейтинг фильма --
General
Complete name : F:\Kino\Боевики\Ускорение. 2015.avi
Format : AVI
Format/Info : Audio Video Interleave
File size : 1.46 GiB
Duration : 1 h 35 min
Overall bit rate : 2 171 kb/s
Writing application : VirtualDubMod 1.5.10.3 | www.virtualdub-fr.org || (build 2550/release)
Writing library : VirtualDubMod build 2550/release
Video
ID : 0
Format : MPEG-4 Visual
Format profile : Advanced Simple@L5
Format settings, BVOP : 2
Format settings, QPel : No
Format settings, GMC : No warppoints
Format settings, Matrix : Default (MPEG)
Codec ID : XVID
Codec ID/Hint : XviD
Duration : 1 h 35 min
Bit rate : 1 970 kb/s
Width : 720 pixels
Height : 304 pixels
Display aspect ratio : 2.35:1
Frame rate : 23.976 (24000/1001) FPS
Color space : YUV
Chroma subsampling : 4:2:0
Bit depth : 8 bits
Scan type : Progressive
Compression mode : Lossy
Bits/(Pixel*Frame) : 0.375
Stream size : 1.32 GiB (91%)
Writing library : XviD 1.2.1 (UTC 2008-12-04)
Audio
ID : 1
Format : AC-3
Format/Info : Audio Coding 3
Format settings, Endianness : Big
Codec ID : 2000
Duration : 1 h 35 min
Bit rate mode : Constant
Bit rate : 192 kb/s
Channel(s) : 2 channels
Channel positions : Front: L R
Sampling rate : 48.0 kHz
Frame rate : 31.250 FPS (1536 SPF)
Bit depth : 16 bits
Compression mode : Lossy
Stream size : 132 MiB (9%)
Alignment : Split accross interleaves
Interleave, duration : 42 ms (1.00 video frame)
Interleave, preload duration : 500 ms
Service kind : Complete Main

Release was prepared by RG Cinema

If your ratio falls below 0.3, you will not be able to download Torrents! More about the rating.

[toptorrent.pw].t6013.torrent
Torrent: Registered [ 2019-06-10 22:19 ] · 67E73D5FE5BA5118539EF0CDFEAB4C6CE6832EF5

Download .torrent

Download

15 KB

Status: checked
Completed: 0 times
Size: 1.46 GB
Rate: 
(Vote: 2)
Has thanked: 1  Thanks   (List)
terms.php
Display posts:    
Reply to topic

Current time is: 19-Jun 18:52

All times are UTC + 5



You cannot post new topics in this forum
You cannot reply to topics in this forum
You cannot edit your posts in this forum
You cannot delete your posts in this forum
You cannot vote in polls in this forum
You cannot attach files in this forum
You can download files in this forum