Солт / Salt (Филлип Нойс) [2010 г., Боевик, триллер, криминал, детектив, HDRip] DUB

Reply to topic
DL-List and Torrent activity
Size:  701 MB   |    Registered:  9 days   |    Completed:  0 times
Seeders:  1  [  0 KB/s  ]   Show peers in full details
 
 
 
 
Author Message

_Deimos_ ®

VIP пользователь

Gender: Male

Longevity: 1 year 4 months

Posts: 365

Карма: 33000 [+]

Location: Топторрент

Наличие запрета:

[Profile] [PM]

Post 10-Jun-2019 22:43

[Quote]

Солт-
--Год выпуска: 2010
Страна: США
Жанр: Боевик, триллер, криминал, детектив
Продолжительность: 01:35:55
Перевод: Профессиональный дублирование--Режиссёр: Филлип Нойс--В ролях: Анджелина Джоли, Лив Шрайбер, Чиветел Эджиофор, Даниэль Ольбрыхский, Аугуст Диль, Дэниэл Пирс, Хант Блок, Андре Брогер, Олек Крупа, Кэссиди Хинкль-- : Эвелин Солт — сотрудница ЦРУ. Ей чудом удаётся избежать тюрьмы: собственное агентство выдвигает против неё необоснованные обвинения в том, что она работает на русскую разведку. Теперь Солт необходимо восстановить своё доброе имя.-- Качество: HDRip
Формат видео: AVI
Видео: Xvid, 640x272, 25 fps, 884 kb/s
Аудио: MP3, 48.0 kHz, 2 channels, 128 kb/s--

Рейтинг фильма --
General
Complete name : F:\Kino\Боевики\Солт. 2010.avi
Format : AVI
Format/Info : Audio Video Interleave
File size : 701 MiB
Duration : 1 h 35 min
Overall bit rate : 1 021 kb/s
Writing application : VirtualDubMod 1.5.10.2 (build 2540/release)
Writing library : VirtualDubMod build 2540/release
Video
ID : 0
Format : MPEG-4 Visual
Format profile : Advanced Simple@L5
Format settings, BVOP : 3
Format settings, QPel : No
Format settings, GMC : No warppoints
Format settings, Matrix : Custom
Codec ID : XVID
Codec ID/Hint : XviD
Duration : 1 h 35 min
Bit rate : 884 kb/s
Width : 640 pixels
Height : 272 pixels
Display aspect ratio : 2.35:1
Frame rate : 25.000 FPS
Color space : YUV
Chroma subsampling : 4:2:0
Bit depth : 8 bits
Scan type : Progressive
Compression mode : Lossy
Bits/(Pixel*Frame) : 0.203
Stream size : 606 MiB (87%)
Writing library : XviD 1.2.1 (UTC 2008-12-04)
Audio
ID : 1
Format : MPEG Audio
Format version : Version 1
Format profile : Layer 3
Mode : Joint stereo
Mode extension : MS Stereo
Codec ID : 55
Codec ID/Hint : MP3
Duration : 1 h 35 min
Bit rate mode : Constant
Bit rate : 128 kb/s
Channel(s) : 2 channels
Sampling rate : 48.0 kHz
Compression mode : Lossy
Stream size : 87.8 MiB (13%)
Alignment : Aligned on interleaves
Interleave, duration : 40 ms (1.00 video frame)
Interleave, preload duration : 504 ms

Release was prepared by RG Cinema

If your ratio falls below 0.3, you will not be able to download Torrents! More about the rating.

[toptorrent.pw].t6014.torrent
Torrent: Registered [ 2019-06-10 22:43 ] · EB6D6777920A145CC9A3593B9A1F1E6D0BF336C3

Download .torrent

Download

14 KB

Status: checked
Completed: 0 times
Size: 701 MB
Rate: 
(Vote: 1)
Has thanked: 1  Thanks   (List)
terms.php
Display posts:    
Reply to topic

Current time is: 20-Jun 22:31

All times are UTC + 5



You cannot post new topics in this forum
You cannot reply to topics in this forum
You cannot edit your posts in this forum
You cannot delete your posts in this forum
You cannot vote in polls in this forum
You cannot attach files in this forum
You can download files in this forum