Окно в Париж (Юрий Мамин) [1993 г. Комедия, DVDRip-AVC]

Reply to topic
DL-List and Torrent activity
Size:  2.11 GB   |    Registered:  8 days   |    Completed:  0 times
Seeders:  3  [  0 KB/s  ]   Leechers:  1  [  0 KB/s  ]   Show peers in full details
   
 
Author Message

фазилов ®

Gender: Male

Longevity: 1 year 4 months

Posts: 418

Карма: 4583 [+]

Location: Таш-море

Наличие запрета:

[Profile] [PM]

Post 11-Jun-2019 11:01

[Quote]

Окно в Париж Год выпуска: 1993
Страна: Россия, Ленфильм, при участии Франция, Fontaine Sarl, La Sept Cinema, Sodaperaga Productions
Жанр: Комедия
Продолжительность: 01:52:02
Перевод: Не требуется
Cубтитры: нет
Режиссер: Юрий Мамин
В ролях: Аньес Сораль, Сергей Дрейден, Виктор Михайлов (I), Нина Усатова, Кира Крейлис-Петрова, Наталья Ипатова, Виктор Гоголев, Тамара Тимофеева, Андрей Ургант, Жан Рюппер, Малька Рибовска, Бернар Кассюс-Суланис, Владимир Калиш, Алексей Заливалов, Алексей Козодаев, Елена Драпеко, Валентин Букин, Варвара Шабалина, Анатолий Сливников, Сергей Лабырин, Анатолий Шведерский, Анастасия Самарская
Описание: Чижов — учитель музыки, проживающий в питерской коммуналке, всю жизнь мечтал попасть в свободный западный мир. И вот его мечта сбывается. После изрядного подпития соседи находят в пустующей и захламленной комнате, где когда-то жила странная старуха, окно в Париж, прямо на левый берег Сены. С этого часа начинаются периодические прогулки по городу грёз, а также всевозможные злоключения французских "гостей" на берегах Невы.

Качество видео: DVDRip (AVC)
Формат видео: MKV
Видео: MPEG-4 AVC, 2500 Кбит/с, 752x576, 25 fps
Аудио: AC3, 2 ch, 192 Кбит/с, 48 kHz
Общее
Уникальный идентификатор : 241862592495816438498202850066990320471 (0xB5F50A7A7C50C196840007BBF7E74B57)
Полное имя : E:\Мои релизы-2\Окно в Париж (1993).mkv
Формат : Matroska
Версия формата : Version 4 / Version 2
Размер файла : 2,11 Гбайт
Продолжительность : 1 ч. 52 м.
Общий поток : 2694 Кбит/сек
Название фильма : ? Окно в Париж ?
Режиссёр : Юрий Мамин
Исполнитель : Аньес Сораль, Сергей Дрейден, Нина Усатова, Виктор Михайлов, Кира Крейлис-Петрова, Наталья Ипатова, Виктор Гоголев, Тамара Тимофеева, Андрей Ургант, Жан Руперт, Малка Рибовска, Бернард Кассус-Соланис, Владимир Калиш, Алексей Заливалов, Алексей Козодаев, Елена Драпеко, Анатолий Сливников, Сергей Лабырин, Олег Белов, Татьяна Комарова, Валерий Кравченко, Юрий Мамин, Андрей Мухтаров, Ги Селигман, Виктория Смоленская, Аркадий Тигай, Вера Васильева, Анатолий Шведерский, Валентин Букин, Варвара Шабалина, Александр Горбачев, Юрий Тарасов, Анастасия Самарская, Виктор Колпаков, Владимир Севастьянихин, Сергей Русскин, Михаил Шараутин, Анатолий Рудаков, Г. Мочалов, Павел Фетисов, Александр Стекольников, Вячеслав Пацап, Александр Поляков, Нонна Алексеева, Я. Баткалова, Игорь Бубенчиков, В. Волкова, Елена Волошина, А. Голохвастова, А. Гурков, А. Ермолович, Маргарита Журавлёва, Евгений Зубарь, В. Кислов, Владимир Красинский, Вячеслав Лейкин, Д. Лесков, Г. Мамина, Г. Родина, А. Сидоров, И. Фёдоров, В. Эральт, Василий Аземша, Геннадий Бордачёв, Максим Винцевич, Алёша Жаров, Кирилл Казаков, Юля Линькова, Юля Николаева, Серёжа Петров, Оля Романецкая, Саша Тарасов, Карен Чахирьян, Аня Шелепова, Нелли Молчанова, Евгений Казаков, Олег Юдин, Вячеслав Васильев
Сценарист : Вячеслав Лейкин, Юрий Мамин, Аркадий Тигай, Феликс Миронер, Ги Селигман, Владимир Вардунас
Продюсер : Лаврентий Эмрашвили, Ги Селигман, Алексей Козодаев
Студия-производитель : Fontaine Sarl, La Sept Cinema, Sodaperaga Productions
Жанр : Фантастика, фэнтези, драма, комедия
Описание : После изрядного подпития обитатели коммуналки открывают окно… в Париж. С этого часа начинаются прогулки по городу грез, а также злоключения французских «гостей» на берегах Невы.
Дата кодирования : UTC 2014-12-31 14:16:17
Программа кодирования : mkvmerge v6.1.0 ('Old Devil') built on Mar 4 2013 09:10:42
Библиотека кодирования : libebml v1.3.0 + libmatroska v1.4.0
Обложка : Yes
Attachments : Cover.jpg
Видео
Идентификатор : 1
Формат : AVC
Формат/Информация : Advanced Video Codec
Профиль формата : High@L3.2
Параметр CABAC формата : Да
Параметр ReFrames формата : 9 кадров
Идентификатор кодека : V_MPEG4/ISO/AVC
Продолжительность : 1 ч. 52 м.
Битрейт : 2500 Кбит/сек
Ширина : 752 пикселя
Высота : 576 пикселей
Соотношение сторон : 4:3
Режим частоты кадров : Постоянный
Частота кадров : 25,000 кадров/сек
Цветовое пространство : YUV
Субдискретизация насыщенности : 4:2:0
Битовая глубина : 8 бит
Тип развёртки : Прогрессивная
Бит/(Пиксели*Кадры) : 0.231
Размер потока : 1,92 Гбайт (91%)
Заголовок : Окно в Париж (1993) © Fontaine Sarl, La Sept Cinema, Sodaperaga Productions (Encoded: -=BaSK=-)
Библиотека кодирования : x264 core 130 r2273 b3065e6
Настройки программы : cabac=1 / ref=9 / deblock=1:-2:-3 / analyse=0x3:0x133 / me=umh / subme=9 / psy=1 / psy_rd=1.10:1.00 / mixed_ref=1 / me_range=64 / chroma_me=1 / trellis=1 / 8x8dct=1 / cqm=0 / deadzone=21,11 / fast_pskip=0 / chroma_qp_offset=-4 / threads=6 / lookahead_threads=1 / sliced_threads=0 / nr=0 / decimate=1 / interlaced=0 / bluray_compat=0 / constrained_intra=0 / bframes=12 / b_pyramid=2 / b_adapt=2 / b_bias=0 / direct=3 / weightb=1 / open_gop=0 / weightp=2 / keyint=210 / keyint_min=10 / scenecut=40 / intra_refresh=0 / rc_lookahead=60 / rc=2pass / mbtree=1 / bitrate=2500 / ratetol=1.0 / qcomp=0.60 / qpmin=0 / qpmax=69 / qpstep=4 / cplxblur=20.0 / qblur=0.5 / ip_ratio=1.40 / aq=1:1.00
Язык : Russian
Default : Да
Forced : Нет
Аудио
Идентификатор : 2
Формат : AC-3
Формат/Информация : Audio Coding 3
Расширение режима : CM (complete main)
Параметр Endianness формата : Big
Идентификатор кодека : A_AC3
Продолжительность : 1 ч. 52 м.
Вид битрейта : Постоянный
Битрейт : 192 Кбит/сек
Каналы : 2 канала
Расположение каналов : Front: L R
Частота : 48,0 КГц
Частота кадров : 31,250 кадров/сек (1536 spf)
Битовая глубина : 16 бит
Метод сжатия : С потерями
Размер потока : 154 Мбайт (7%)
Язык : Russian
Default : Да
Forced : Нет
Меню
00:00:00.000 : ru:Глава №-01
00:10:00.000 : ru:Глава №-02
00:15:00.000 : ru:Глава №-03
00:20:00.000 : ru:Глава №-04
00:25:00.000 : ru:Глава №-05
00:30:00.000 : ru:Глава №-06
00:35:00.000 : ru:Глава №-07
00:40:00.000 : ru:Глава №-08
00:45:00.000 : ru:Глава №-09
00:50:00.000 : ru:Глава №-10
00:55:00.000 : ru:Глава №-11
01:00:00.000 : ru:Глава №-12
01:05:00.000 : ru:Глава №-13
01:10:00.000 : ru:Глава №-14
01:15:00.000 : ru:Глава №-15
01:20:00.000 : ru:Глава №-16
01:25:00.000 : ru:Глава №-17
Релиз подготовлен группой Мои релизы

If your ratio falls below 0.3, you will not be able to download Torrents! More about the rating.

[toptorrent.pw].t6015.torrent
 SILVER TORRENT! DOWNLOAD TRAFFIC PARTIALLY CONSIDERED! 
Вечный
Torrent: Registered [ 2019-06-11 11:01 ] · A7604C57BB22E577ACFBBD1E8FD7948C8C4D1ED7

Download .torrent

Download

11 KB

Status: checked
Completed: 0 times
Size: 2.11 GB
Rate: 
(Vote: 2)
Has thanked: 1  Thanks   (List)
terms.php
Display posts:    
Reply to topic

Current time is: 19-Jun 17:43

All times are UTC + 5



You cannot post new topics in this forum
You cannot reply to topics in this forum
You cannot edit your posts in this forum
You cannot delete your posts in this forum
You cannot vote in polls in this forum
You cannot attach files in this forum
You can download files in this forum