Онг-Бак: Трилогия / Ong-Bak: Trilogy (Прачья Пинкаю, Тони Джа, Панна Риттикрай) [2003, 2008, 2010 г., Боевик, триллер, криминал, приключения, HDRip-AVC] MVO, DVO

Reply to topic

DL-List and Torrent activity
Size:  4.36 GB   |    Registered:  3 months 6 days   |    Completed:  0 times

Seeder not seen: 1 month 19 days

 
 
 
 
Author Message

_Deimos_ ®

VIP пользователь

Gender: Male

Longevity: 1 year 7 months

Posts: 379

Карма: 33000 [+]

Наличие запрета:

[Profile] [PM]

Post 11-Jun-2019 18:55

[Quote]


-- Год выпуска: 2003
Страна: Таиланд
Жанр: Боевик, триллер, криминал, приключения
Продолжительность: 01:44:30
Перевод: Профессиональный многоголосый--Режиссер: Прачья Пинкаю--В ролях: Петчтай Вонгкамлао, Тони Джаа, Пумвари Йодкамол, Сухао Понгвилай, Чумпхорн Тепфитак, Чатевут Ватчаракхун, Ваннакит Сириопут, Рунграви Баридзиндакул, Чаттхапонг Пантанаункул, Нудхапол Асавабхахин-- Действие фильма начинается в небольшой деревушке Нагпраду, расположенной на северо-востоке Таиланда, жителей которой постигает несчастье — пропала голова статуи Будды по имени Онг Бак. Для того, чтобы вернуть статую, требуется человек, обладающий не только умом, но и физической силой.
Единственный, кто отвечает этим требованиям, — это Тинг перенявший искусство Муай Тай (тайский бокс) у почитаемого в деревне монаха.-- Качество: HDRip-AVC
Формат видео: MKV
Видео кодек: H.264, 1024x544, 24 fps, 1544 kb/s
Аудио кодек: AC3, 48.0 kHz, 6 channels, 448 kb/s--

Рейтинг фильма --
General
Unique ID : 251765556234263548431903458464607864187 (0xBD68484982CBDB879E85C8D8AB21857B)
Complete name : F:\Kino\Бойцы\Ong-bak.2003-2010.HDRip-AVC.H.264.1,45 Gb.RG.Films\1. Ong-bak.2003.HDRip-AVC.H.264.1,45 Gb.RG.Films.mkv
Format : Matroska
Format version : Version 2
File size : 1.46 GiB
Duration : 1 h 44 min
Overall bit rate : 1 988 kb/s
Encoded date : UTC 2014-01-25 20:14:14
Writing application : mkvmerge v5.8.0 ('No Sleep / Pillow') built on Sep 2 2012 15:37:04
Writing library : libebml v1.2.3 + libmatroska v1.3.0
Video
ID : 1
Format : AVC
Format/Info : Advanced Video Codec
Format profile : High@L4.1
Format settings, CABAC : Yes
Format settings, RefFrames : 8 frames
Codec ID : V_MPEG4/ISO/AVC
Duration : 1 h 44 min
Bit rate : 1 544 kb/s
Width : 1 024 pixels
Height : 544 pixels
Display aspect ratio : 1.882
Frame rate mode : Constant
Frame rate : 24.000 FPS
Color space : YUV
Chroma subsampling : 4:2:0
Bit depth : 8 bits
Scan type : Progressive
Bits/(Pixel*Frame) : 0.115
Stream size : 1.10 GiB (75%)
Writing library : x264 core 125 r2208 d9d2288
Encoding settings : cabac=1 / ref=8 / deblock=1:-1:-1 / analyse=0x3:0x133 / me=umh / subme=11 / psy=1 / psy_rd=1.00:0.10 / mixed_ref=1 / me_range=24 / chroma_me=1 / trellis=2 / 8x8dct=1 / cqm=0 / deadzone=21,11 / fast_pskip=0 / chroma_qp_offset=-3 / threads=12 / lookahead_threads=2 / sliced_threads=0 / nr=0 / decimate=1 / interlaced=0 / bluray_compat=0 / constrained_intra=0 / bframes=3 / b_pyramid=2 / b_adapt=2 / b_bias=0 / direct=3 / weightb=1 / open_gop=0 / weightp=2 / keyint=250 / keyint_min=23 / scenecut=40 / intra_refresh=0 / rc_lookahead=50 / rc=2pass / mbtree=1 / bitrate=1544 / ratetol=1.0 / qcomp=0.60 / qpmin=0 / qpmax=69 / qpstep=4 / cplxblur=20.0 / qblur=0.5 / ip_ratio=1.40 / aq=1:1.00
Default : Yes
Forced : No
Audio
ID : 2
Format : AC-3
Format/Info : Audio Coding 3
Format settings, Endianness : Big
Codec ID : A_AC3
Duration : 1 h 44 min
Bit rate mode : Constant
Bit rate : 448 kb/s
Channel(s) : 6 channels
Channel positions : Front: L C R, Side: L R, LFE
Sampling rate : 48.0 kHz
Frame rate : 31.250 FPS (1536 SPF)
Bit depth : 16 bits
Compression mode : Lossy
Stream size : 336 MiB (23%)
Service kind : Complete Main
Default : Yes
Forced : No

-- Год выпуска: 2008
Страна: Таиланд
Жанр: Боевик, приключения
Продолжительность: 01:37:35
Перевод: Профессиональный двухголосый--Режиссер: Тони Джа--В ролях: Тони Джаа, Сарунью Вонгкрачанг, Сорапонг Чатри, Примората Дежудом, Нирут Сиричанья, Петчтай Вонгкамлао, Сантисук Промсири, Паттама Пантонг, Супакорн Китсувон, Натданай Конгтонг-- В 1974 году по Буддийскому календарю и в 1421 году от рождества христова влияние королевского двора Аюттаия, времен правления короля Рама II, который сам был родом из этих мест стало более могущественным, чем Сукхотаи. И оно росло с каждым днем, расширяя свои владения на восток. Армия Аюттаия покорила Город Ангелов за 7 месяцев. Год и 3 месяца спустя городской глава Ратчасена, который долгое время вынашивал планы захвата трона начал уничтожать неугодных ему военноначальников. Одним из таких и стал генерал Сингхадачо, сын которого Тиан чудом остался жив и попал в деревню повстанцев Пха Пик Крут, где командир Чер Нан воспитал его, как родного сына. Прошли годы. Но Тиан, который возмужал и стал прекрасным бойцом так и не обрел покоя, омрачая каждый прожитый день черными мыслями о мести жестокому тирану Ратчасене. И день настал-- Качество: HDRip-AVC
Формат видео: MKV
Видео кодек: H.264, 1024x432, 24 fps, 1684 kb/s
Аудио кодек: AC3, 48.0 kHz, 6 channels, 448 kb/s--

Рейтинг фильма --
General
Unique ID : 254191849378863110385733510046814858514 (0xBF3B91C669BAEF58A4DF55E948B86D12)
Complete name : F:\Kino\Бойцы\Ong-bak.2003-2010.HDRip-AVC.H.264.1,45 Gb.RG.Films\2. Ong.Bak.2.2008.HDRip-AVC.H.264.1,45 Gb.RG.Films.mkv
Format : Matroska
Format version : Version 2
File size : 1.45 GiB
Duration : 1 h 37 min
Overall bit rate : 2 133 kb/s
Encoded date : UTC 2014-01-25 23:27:06
Writing application : mkvmerge v5.8.0 ('No Sleep / Pillow') built on Sep 2 2012 15:37:04
Writing library : libebml v1.2.3 + libmatroska v1.3.0
Video
ID : 1
Format : AVC
Format/Info : Advanced Video Codec
Format profile : High@L4.1
Format settings, CABAC : Yes
Format settings, RefFrames : 8 frames
Codec ID : V_MPEG4/ISO/AVC
Duration : 1 h 37 min
Bit rate : 1 684 kb/s
Width : 1 024 pixels
Height : 432 pixels
Display aspect ratio : 2.40:1
Frame rate mode : Constant
Frame rate : 24.000 FPS
Color space : YUV
Chroma subsampling : 4:2:0
Bit depth : 8 bits
Scan type : Progressive
Bits/(Pixel*Frame) : 0.159
Stream size : 1.12 GiB (77%)
Writing library : x264 core 125 r2208 d9d2288
Encoding settings : cabac=1 / ref=8 / deblock=1:-1:-1 / analyse=0x3:0x133 / me=umh / subme=11 / psy=1 / psy_rd=1.00:0.10 / mixed_ref=1 / me_range=24 / chroma_me=1 / trellis=2 / 8x8dct=1 / cqm=0 / deadzone=21,11 / fast_pskip=0 / chroma_qp_offset=-3 / threads=12 / lookahead_threads=2 / sliced_threads=0 / nr=0 / decimate=1 / interlaced=0 / bluray_compat=0 / constrained_intra=0 / bframes=3 / b_pyramid=2 / b_adapt=2 / b_bias=0 / direct=3 / weightb=1 / open_gop=0 / weightp=2 / keyint=250 / keyint_min=23 / scenecut=40 / intra_refresh=0 / rc_lookahead=50 / rc=2pass / mbtree=1 / bitrate=1684 / ratetol=1.0 / qcomp=0.60 / qpmin=0 / qpmax=69 / qpstep=4 / cplxblur=20.0 / qblur=0.5 / ip_ratio=1.40 / aq=1:1.00
Default : Yes
Forced : No
Audio
ID : 2
Format : AC-3
Format/Info : Audio Coding 3
Format settings, Endianness : Big
Codec ID : A_AC3
Duration : 1 h 37 min
Bit rate mode : Constant
Bit rate : 448 kb/s
Channel(s) : 6 channels
Channel positions : Front: L C R, Side: L R, LFE
Sampling rate : 48.0 kHz
Frame rate : 31.250 FPS (1536 SPF)
Bit depth : 16 bits
Compression mode : Lossy
Stream size : 313 MiB (21%)
Service kind : Complete Main
Default : Yes
Forced : No

-- Год выпуска: 2010
Страна: Таиланд
Жанр: Боевик
Продолжительность: 01:38:31
Перевод: Профессиональный двухголосый--Режиссер: Тони Джа, Панна Риттикрай--В ролях: Тони Джаа, Дэн Чупонг, Сарунью Вонгкрачанг, Петчтай Вонгкамлао, Супакорн Китсувон, Примората Дежудом-- Тиан снова сражается со своим противником — жестоким королем. Воины владыки до полусмерти избивают его и забирают в плен. Но ни пытки, ни душевные муки не сломили сопротивление доблестного воина. Король, не в силах справиться с пленником, решает убить Тиана. В день казни его чудом спасают жители родной деревни. Восстановив свои силы с помощью медитации, Тиан готов к решающей битве со злым черным колдуном.-- Качество: HDRip-AVC
Формат видео: MKV
Видео кодек: H.264, 1024x432, 24 fps, 1664 kb/s
Аудио кодек: AC3, 48.0 kHz, 6 channels, 448 kb/s--

Рейтинг фильма --
General
Unique ID : 194413130265138758197220509219905088067 (0x92429B5ED84D0AAA9712F97409D82A43)
Complete name : F:\Kino\Бойцы\Ong-bak.2003-2010.HDRip-AVC.H.264.1,45 Gb.RG.Films\3. Ong.Bak.3.2010.HDRip-AVC.H.264.1,45 Gb.RG.Films.mkv
Format : Matroska
Format version : Version 2
File size : 1.45 GiB
Duration : 1 h 38 min
Overall bit rate : 2 112 kb/s
Encoded date : UTC 2014-01-26 02:13:34
Writing application : mkvmerge v5.8.0 ('No Sleep / Pillow') built on Sep 2 2012 15:37:04
Writing library : libebml v1.2.3 + libmatroska v1.3.0
Video
ID : 1
Format : AVC
Format/Info : Advanced Video Codec
Format profile : High@L4.1
Format settings, CABAC : Yes
Format settings, RefFrames : 8 frames
Codec ID : V_MPEG4/ISO/AVC
Duration : 1 h 38 min
Bit rate : 1 664 kb/s
Width : 1 024 pixels
Height : 432 pixels
Display aspect ratio : 2.40:1
Frame rate mode : Constant
Frame rate : 24.000 FPS
Color space : YUV
Chroma subsampling : 4:2:0
Bit depth : 8 bits
Scan type : Progressive
Bits/(Pixel*Frame) : 0.157
Stream size : 1.12 GiB (77%)
Writing library : x264 core 125 r2208 d9d2288
Encoding settings : cabac=1 / ref=8 / deblock=1:-1:-1 / analyse=0x3:0x133 / me=umh / subme=11 / psy=1 / psy_rd=1.00:0.10 / mixed_ref=1 / me_range=24 / chroma_me=1 / trellis=2 / 8x8dct=1 / cqm=0 / deadzone=21,11 / fast_pskip=0 / chroma_qp_offset=-3 / threads=12 / lookahead_threads=2 / sliced_threads=0 / nr=0 / decimate=1 / interlaced=0 / bluray_compat=0 / constrained_intra=0 / bframes=3 / b_pyramid=2 / b_adapt=2 / b_bias=0 / direct=3 / weightb=1 / open_gop=0 / weightp=2 / keyint=250 / keyint_min=23 / scenecut=40 / intra_refresh=0 / rc_lookahead=50 / rc=2pass / mbtree=1 / bitrate=1664 / ratetol=1.0 / qcomp=0.60 / qpmin=0 / qpmax=69 / qpstep=4 / cplxblur=20.0 / qblur=0.5 / ip_ratio=1.40 / aq=1:1.00
Default : Yes
Forced : No
Audio
ID : 2
Format : AC-3
Format/Info : Audio Coding 3
Format settings, Endianness : Big
Codec ID : A_AC3
Duration : 1 h 38 min
Bit rate mode : Constant
Bit rate : 448 kb/s
Channel(s) : 6 channels
Channel positions : Front: L C R, Side: L R, LFE
Sampling rate : 48.0 kHz
Frame rate : 31.250 FPS (1536 SPF)
Bit depth : 16 bits
Compression mode : Lossy
Stream size : 316 MiB (21%)
Service kind : Complete Main
Default : Yes
Forced : No

Release was prepared by RG Cinema



If your ratio falls below 0.3, you will not be able to download Torrents! More about the rating.

[toptorrent.pw].t6016.torrent
Torrent: Registered [ 2019-06-11 18:55 ] · 9B89DBEC19EEFB0DE3D7C122EC6327C37F699CE3

Download .torrent

Download

12 KB

Status: checked
Completed: 0 times
Size: 4.36 GB
Rate: 
(Vote: 3)
Has thanked: 3  Thanks   (List)
terms.php

_Kratos_

Gender: Male

Longevity: 1 year 7 months

Posts: 417

Карма: 25379 [+]

Location: Навои

Наличие запрета:

[Profile] [PM]

Post 11-Jun-2019 19:47 (after 51 minute)

[Quote]

_Deimos_, ay+++++++++++++++++) 

_Deimos_ ®

VIP пользователь

Gender: Male

Longevity: 1 year 7 months

Posts: 379

Карма: 33000 [+]

Наличие запрета:

[Profile] [PM]

Post 11-Jun-2019 20:08 (after 21 minute)

[Quote]

15102_Deimos_, ay+++++++++++++++++)
gm

Display posts:    
Reply to topic

Current time is: 18-Sep 16:42

All times are UTC + 5



You cannot post new topics in this forum
You cannot reply to topics in this forum
You cannot edit your posts in this forum
You cannot delete your posts in this forum
You cannot vote in polls in this forum
You cannot attach files in this forum
You can download files in this forum