Отель Мумбаи: Противостояние / Hotel Mumbai (Энтони Марас) [2018 г., Триллер, драма, история, BDRip] DUB [iTunes]

Reply to topic

DL-List and Torrent activity
Size:  1.46 GB   |    Registered:  4 months 1 day   |    Completed:  0 times
Seeders:  1  [  0 KB/s  ]   Show peers in full details
 
 
 
 
Author Message

_Deimos_ ®

VIP пользователь

Gender: Male

Longevity: 1 year 8 months

Posts: 379

Карма: 33000 [+]

Наличие запрета:

[Profile] [PM]

Post 14-Jun-2019 14:09

[Quote]

Отель Мумбаи: Противостояние / Hotel Mumbai- --Год выпуска: 2018
Страна: США, Австралия
Жанр: Триллер, драма, история
Продолжительность: 02:02:53
Перевод: Дублированный [iTunes]--Режиссёр: Энтони Марас--В ролях: Арми Хаммер, Джейсон Айзекс, Назанин Бониади, Дев Патель, Наташа Лю Бордиццо, Амандип Сингх, Сухаил Найар, Манодж Мера, Динеш Кумар, Амриптал Сингх-- : События фильма, основанного на реальных событиях, разворачиваются в конце ноября 2008 года в отеле Тадж-Махал Палас в Мумбаи. День в одной из самых роскошных гостиниц города начинается с обычной рутины: персонал размещает новых постояльцев, повара трудятся на кухне, а горничные убирают номера. Утром в отеле регистрируется американец Дэвид вместе со своей женой Захрой, ребенком и его няней, но их отдых прерывается группой террористов, которые врываются в гостиницу и начинают расстреливать всех подряд. Одному из работников кухни удается вывести часть гостей, а Дэвид решает пробраться в свой номер, чтобы спасти ребенка. Тем временем местная полиция делает все возможное, чтобы остановить волну насилия.-- Качество: BDRip
Формат видео: AVI
Видео: Xvid, 720x304, 23.976 fps, 1307 kb/s
Аудио: AC3, 48.0 kHz, 6 channels, 384 kb/s--

Рейтинг фильма --
General
Complete name : G:\Kino\Hotel.Mumbai.2018.BDRip.avi
Format : AVI
Format/Info : Audio Video Interleave
File size : 1.46 GiB
Duration : 2 h 2 min
Overall bit rate : 1 700 kb/s
Writing application : VirtualDubMod 1.5.10.3 | www.virtualdub-fr.org || (build 2550/release)
Writing library : VirtualDubMod build 2550/release
Video
ID : 0
Format : MPEG-4 Visual
Format profile : Advanced Simple@L5
Format settings, BVOP : 1
Format settings, QPel : No
Format settings, GMC : No warppoints
Format settings, Matrix : Custom
Codec ID : XVID
Codec ID/Hint : XviD
Duration : 2 h 2 min
Bit rate : 1 307 kb/s
Width : 720 pixels
Height : 304 pixels
Display aspect ratio : 2.35:1
Frame rate : 23.976 (24000/1001) FPS
Color space : YUV
Chroma subsampling : 4:2:0
Bit depth : 8 bits
Scan type : Progressive
Compression mode : Lossy
Bits/(Pixel*Frame) : 0.249
Stream size : 1.12 GiB (77%)
Writing library : XviD 73
Audio
ID : 1
Format : AC-3
Format/Info : Audio Coding 3
Format settings, Endianness : Big
Codec ID : 2000
Duration : 2 h 2 min
Bit rate mode : Constant
Bit rate : 384 kb/s
Channel(s) : 6 channels
Channel positions : Front: L C R, Side: L R, LFE
Sampling rate : 48.0 kHz
Frame rate : 31.250 FPS (1536 SPF)
Bit depth : 16 bits
Compression mode : Lossy
Stream size : 338 MiB (23%)
Alignment : Split accross interleaves
Interleave, duration : 42 ms (1.00 video frame)
Interleave, preload duration : 500 ms
Service kind : Complete Main

Release was prepared by RG Cinema



If your ratio falls below 0.3, you will not be able to download Torrents! More about the rating.

[toptorrent.pw].t6020.torrent
Torrent: Registered [ 2019-06-14 14:09 ] · CDA34C84C1D127907956D5D6674EBF72CE2170C0

Download .torrent

Download

15 KB

Status: checked
Completed: 0 times
Size: 1.46 GB
Rate: 
(Vote: 1)
Has thanked: 1  Thanks   (List)
terms.php
Display posts:    
Reply to topic

Current time is: 15-Oct 14:15

All times are UTC + 5



You cannot post new topics in this forum
You cannot reply to topics in this forum
You cannot edit your posts in this forum
You cannot delete your posts in this forum
You cannot vote in polls in this forum
You cannot attach files in this forum
You can download files in this forum