Мы / Us (Джордан Пил) [2019 г., Ужасы, триллер, HDRip] DUB [iTunes]

Reply to topic
 
Author Message

_Deimos_ ®

VIP пользователь

Gender: Male

Longevity: 1 year 5 months

Posts: 374

Карма: 33000 [+]

Наличие запрета:

[Profile] [PM]

Post 14-Jun-2019 14:10

[Quote]

Мы / Us- --Год выпуска: 2019
Страна: США, Япония, Китай
Жанр: Ужасы, триллер
Продолжительность: 01:56:28
Перевод: Дублированный [iTunes]--Режиссёр: Джордан Пил--В ролях: Лупита Нионго, Уинстон Дьюк, Элизабет Мосс, Тим Хайдекер, Шахади Райт Джозеф, Эван Алекс, Яхья Абдул-Матин II, Анна Диоп, Кали Шелдон, Ноэль Шелдон, Мэдисон Карри, Эшли МакКой, Напьера Гровс, Лон Гоуэн, Дастин Ибарра-- : Картина расскажет о семейной паре, которая вместе с детьми и друзьями приезжает в пляжный домик в надежде расслабиться и отдохнуть. С приближением ночи становится понятно, что покой им не светит, когда рядом появляются нежеланные соседи.-- Качество: HDRip
Формат видео: AVI
Видео: Xvid, 720x304, 23.976 fps, 1402 kb/s
Аудио: AC3, 48.0 kHz, 6 channels, 384 kb/s--

Рейтинг фильма --
General
Complete name : G:\Kino\Us.2019.HDRip.1.46Gb.MegaPeer.avi
Format : AVI
Format/Info : Audio Video Interleave
File size : 1.46 GiB
Duration : 1 h 56 min
Overall bit rate : 1 795 kb/s
Writing application : VirtualDubMod 1.5.10.3 | www.virtualdub-fr.org || (build 2550/release)
Writing library : VirtualDubMod build 2550/release
Video
ID : 0
Format : MPEG-4 Visual
Format profile : Advanced Simple@L5
Format settings, BVOP : 1
Format settings, QPel : No
Format settings, GMC : No warppoints
Format settings, Matrix : Custom
Codec ID : XVID
Codec ID/Hint : XviD
Duration : 1 h 56 min
Bit rate : 1 402 kb/s
Width : 720 pixels
Height : 304 pixels
Display aspect ratio : 2.35:1
Frame rate : 23.976 (24000/1001) FPS
Color space : YUV
Chroma subsampling : 4:2:0
Bit depth : 8 bits
Scan type : Progressive
Compression mode : Lossy
Bits/(Pixel*Frame) : 0.267
Stream size : 1.14 GiB (78%)
Writing library : XviD 73
Audio
ID : 1
Format : AC-3
Format/Info : Audio Coding 3
Format settings, Endianness : Big
Codec ID : 2000
Duration : 1 h 56 min
Bit rate mode : Constant
Bit rate : 384 kb/s
Channel(s) : 6 channels
Channel positions : Front: L C R, Side: L R, LFE
Sampling rate : 48.0 kHz
Frame rate : 31.250 FPS (1536 SPF)
Bit depth : 16 bits
Compression mode : Lossy
Stream size : 320 MiB (21%)
Alignment : Split accross interleaves
Interleave, duration : 42 ms (1.00 video frame)
Interleave, preload duration : 500 ms
Service kind : Complete Main

Release was prepared by RG Cinema

Display posts:    
Reply to topic

Current time is: 21-Jul 21:52

All times are UTC + 5



You cannot post new topics in this forum
You cannot reply to topics in this forum
You cannot edit your posts in this forum
You cannot delete your posts in this forum
You cannot vote in polls in this forum
You cannot attach files in this forum
You cannot download files in this forum